找回密码

蓝光电影网

查看: 960|回复: 10

[2014][法国][动作][救参96小时3/即刻救援3/飓风营救3][REMUX][1080P-37.32G][MKV]DTS

[复制链接]
蓝光币
382
发表于 2015-9-12 18:35:50 | 显示全部楼层 |阅读模式

[2014][法国][行动][救参96小时3/马上救济3/飓风救援3][REMUX][1080P-37.32G][MKV]DTS
173355dkejovf1ee36e6nz.jpg

◎影片根基信息

范例: 行动 / 惊悚 / 犯罪
制片国家/地域: 法国
巨细: 27.32G
清楚度: 1080P
视频: MKV
豆瓣评分: 6.2
说话: 英语 / 俄语
上映日期: 2015-03-20(中国大陆) / 2014-12-16(柏林首映) / 2015-01-21(法国)
片长: 109分钟
别名: 马上救济3(台) / 救参96小时3(港) / Tak3n
导演: 奥利维尔·米加顿
编剧: 吕克·贝松 / 罗伯特·马克·卡门
主演: 连姆·尼森 / 福里斯特·惠特克 / 法米克·詹森 / 玛姬·格蕾斯 / 多格雷·斯科特 / 更多...
影片: Taken.3.2014.EXTENDED.1080p.BluRay.REMUX.AVC.DTS-HD.MA.5.1-RARBG

◎剧情简介
       前中情局捕快布莱恩(连姆·尼森 Liam Neeson 饰)此主要拯救的不是被绑架的家人,而是他自己。布莱恩发现前妻遭遭到残暴地杀戮,自己竟被诬陷为杀妻的凶手。悲愤又失落的他为了洗刷委屈,必须使出满身 解数,找出真相并揪出杀人凶手,同时还得躲避中情局、联邦观察局和警方的多方追缉;除此之外,更重要的使命,就是庇护他身旁唯一所剩并是最重要的亲人—— 他的女儿(玛姬·格蕾斯 Maggie Grace 饰)……
-------------------------

  1. Video
  2. ID                                       : 1
  3. Format                                   : AVC
  4. Format/Info                              : Advanced Video Codec
  5. Format profile                           : [email protected]
  6. Format settings, CABAC                   : Yes
  7. Format settings, ReFrames                : 4 frames
  8. Codec ID                                 : V_MPEG4/ISO/AVC
  9. Duration                                 : 1h 55mn
  10. Bit rate mode                            : Variable
  11. Maximum bit rate                         : 34.0 Mbps
  12. Width                                    : 1 920 pixels
  13. Height                                   : 1 080 pixels
  14. Display aspect ratio                     : 16:9
  15. Frame rate mode                          : Constant
  16. Frame rate                               : 23.976 fps
  17. Color space                              : YUV
  18. Chroma subsampling                       : 4:2:0
  19. Bit depth                                : 8 bits
  20. Scan type                                : Progressive
  21. Title                                    : Taken.3.2014.EXTENDED.1080p.BluRay.REMUX.AVC.DTS-HD.MA.5.1-RARBG
  22. Language                                 : English
  23. Default                                  : No
  24. Forced                                   : No

  25. Audio #1
  26. ID                                       : 2
  27. Format                                   : DTS
  28. Format/Info                              : Digital Theater Systems
  29. Format profile                           : MA / Core
  30. Mode                                     : 16
  31. Format settings, Endianness              : Big
  32. Codec ID                                 : A_DTS
  33. Duration                                 : 1h 55mn
  34. Bit rate mode                            : Variable
  35. Bit rate                                 : Unknown / 1 509 Kbps
  36. Channel(s)                               : 6 channels
  37. Channel positions                        : Front: L C R, Side: L R, LFE
  38. Sampling rate                            : 48.0 KHz
  39. Bit depth                                : 24 bits
  40. Compression mode                         : Lossless / Lossy
  41. Title                                    : Taken.3.2014.EXTENDED.1080p.BluRay.REMUX.AVC.DTS-HD.MA.5.1-RARBG
  42. Language                                 : English
  43. Default                                  : Yes
  44. Forced                                   : No

  45. Audio #2
  46. ID                                       : 3
  47. Format                                   : DTS
  48. Format/Info                              : Digital Theater Systems
  49. Mode                                     : 16
  50. Format settings, Endianness              : Big
  51. Codec ID                                 : A_DTS
  52. Duration                                 : 1h 55mn
  53. Bit rate mode                            : Constant
  54. Bit rate                                 : 1 509 Kbps
  55. Channel(s)                               : 6 channels
  56. Channel positions                        : Front: L C R, Side: L R, LFE
  57. Sampling rate                            : 48.0 KHz
  58. Bit depth                                : 24 bits
  59. Compression mode                         : Lossy
  60. Stream size                              : 1.22 GiB (4%)
  61. Title                                    : Taken.3.2014.EXTENDED.1080p.BluRay.REMUX.AVC.DTS-HD.MA.5.1-RARBG
  62. Language                                 : English
  63. Default                                  : No
  64. Forced                                   : No

  65. Audio #3
  66. ID                                       : 4
  67. Format                                   : AC-3
  68. Format/Info                              : Audio Coding 3
  69. Mode extension                           : CM (complete main)
  70. Format settings, Endianness              : Big
  71. Codec ID                                 : A_AC3
  72. Duration                                 : 1h 55mn
  73. Bit rate mode                            : Constant
  74. Bit rate                                 : 448 Kbps
  75. Channel(s)                               : 6 channels
  76. Channel positions                        : Front: L C R, Side: L R, LFE
  77. Sampling rate                            : 48.0 KHz
  78. Bit depth                                : 16 bits
  79. Compression mode                         : Lossy
  80. Stream size                              : 369 MiB (1%)
  81. Title                                    : Taken.3.2014.EXTENDED.1080p.BluRay.REMUX.AVC.DTS-HD.MA.5.1-RARBG
  82. Language                                 : Spanish
  83. Default                                  : No
  84. Forced                                   : No

  85. Audio #4
  86. ID                                       : 5
  87. Format                                   : AC-3
  88. Format/Info                              : Audio Coding 3
  89. Mode extension                           : CM (complete main)
  90. Format settings, Endianness              : Big
  91. Codec ID                                 : A_AC3
  92. Duration                                 : 1h 55mn
  93. Bit rate mode                            : Constant
  94. Bit rate                                 : 448 Kbps
  95. Channel(s)                               : 6 channels
  96. Channel positions                        : Front: L C R, Side: L R, LFE
  97. Sampling rate                            : 48.0 KHz
  98. Bit depth                                : 16 bits
  99. Compression mode                         : Lossy
  100. Stream size                              : 369 MiB (1%)
  101. Title                                    : Taken.3.2014.EXTENDED.1080p.BluRay.REMUX.AVC.DTS-HD.MA.5.1-RARBG
  102. Language                                 : French
  103. Default                                  : No
  104. Forced                                   : No
复制代码

复制代码

-------------------------
◎出色剧照
173339o6idi46456y6o2ts.jpg
173341os1degwdf604dle4.jpg
173343zksyivjrkbsf42sr.jpg

-------------------------
[以上高清电影剧照来自互联网,不代表此片高清剧照]
慎重声明:本站供给的一切高清电影作品均是在网上汇集,任何触及贸易盈利目标均不得利用,否则发生的一切结果将由您自己承当!本站将差池本站的任何内容负任何法令义务!该下载内容仅做宽带测试利用,请鄙人载后24小时内删除。请采办正
版!
-------------------------
◎种子下载地址
旅客,假如您要检察本帖隐藏内容请答复
回复

使用道具 举报

懒得打字嘛,点击右侧快捷回复 【右侧内容,后台自定义】
您需要登录后才可以回帖 登录 | 立即加入

本版积分规则

Archiver|小黑屋| 蓝光电影网 |网站地图

Copyright © 2021 Comsenz Inc. Powered by 蓝光电影网

蓝光电影网

本站内容由用户自主分享和转载自互联网,转载目的在于传递更多信息,并不代表本网赞同其观点和对其真实性负责。

如有侵权、违反国家法律政策行为,请联系我们,我们会第一时间及时清除和处理!

举报反馈邮箱:[email protected]

快速回复 返回顶部 返回列表