找回密码

蓝光电影网

查看: 917|回复: 4

[2015][动作][美国][波霸杀神/浪女血崩战记/艾芙莉][REMUX][1080P-18.48G][MKV]DTS

[复制链接]
蓝光币
382
发表于 2015-9-12 18:43:04 | 显示全部楼层 |阅读模式

112811vfp3l3gzpw2z1smg.jpg


◎影片根基信息
巨细: 18.48G
清楚度: 1080P
视频: MKV
豆瓣评分: 4.8
导演: Joe Lynch
编剧: Yale Hannon / Joe Lynch
主演: 萨尔玛·海耶克 / 珍妮弗·布兰克 / 伊川东吾 / 小田部阿基 / 渡边裕之 / 更多...
范例: 行动 / 惊悚
制片国家/地域: 美国
说话: 英语
上映日期: 2015-01-23(美国)
片长: 92分钟
别名: 浪女血崩战记 / 波霸杀神
影片: Everly.2014.1080p.BluRay.REMUX.AVC.DTS-HD.MA.5.1-RARBG

◎剧情简介
       一个怯懦的女人奋起与黑帮势力qiang战对决。一个女人在自己的居所,挫败她的前男友派来的刺客们……
-------------------------

  1. Video
  2. ID                                       : 1
  3. Format                                   : AVC
  4. Format/Info                              : Advanced Video Codec
  5. Format profile                           : [email protected]
  6. Format settings, CABAC                   : Yes
  7. Format settings, ReFrames                : 2 frames
  8. Codec ID                                 : V_MPEG4/ISO/AVC
  9. Duration                                 : 1h 32mn
  10. Bit rate mode                            : Variable
  11. Width                                    : 1 920 pixels
  12. Height                                   : 1 080 pixels
  13. Display aspect ratio                     : 16:9
  14. Frame rate mode                          : Constant
  15. Frame rate                               : 23.976 fps
  16. Color space                              : YUV
  17. Chroma subsampling                       : 4:2:0
  18. Bit depth                                : 8 bits
  19. Scan type                                : Progressive
  20. Title                                    : Everly.2014.1080p.BluRay.REMUX.AVC.DTS-HD.MA.5.1-RARBG
  21. Default                                  : Yes
  22. Forced                                   : No

  23. Audio #1
  24. ID                                       : 2
  25. Format                                   : DTS
  26. Format/Info                              : Digital Theater Systems
  27. Format profile                           : MA / Core
  28. Mode                                     : 16
  29. Format settings, Endianness              : Big
  30. Codec ID                                 : A_DTS
  31. Duration                                 : 1h 32mn
  32. Bit rate mode                            : Variable
  33. Bit rate                                 : Unknown / 1 509 Kbps
  34. Channel(s)                               : 6 channels
  35. Channel positions                        : Front: L C R, Side: L R, LFE
  36. Sampling rate                            : 48.0 KHz
  37. Bit depth                                : 24 bits
  38. Compression mode                         : Lossless / Lossy
  39. Title                                    : Everly.2014.1080p.BluRay.REMUX.AVC.DTS-HD.MA.5.1-RARBG
  40. Language                                 : English
  41. Default                                  : Yes
  42. Forced                                   : No

  43. Audio #2
  44. ID                                       : 3
  45. Format                                   : AC-3
  46. Format/Info                              : Audio Coding 3
  47. Mode extension                           : CM (complete main)
  48. Format settings, Endianness              : Big
  49. Codec ID                                 : A_AC3
  50. Duration                                 : 1h 32mn
  51. Bit rate mode                            : Constant
  52. Bit rate                                 : 192 Kbps
  53. Channel(s)                               : 2 channels
  54. Channel positions                        : Front: L R
  55. Sampling rate                            : 48.0 KHz
  56. Bit depth                                : 16 bits
  57. Compression mode                         : Lossy
  58. Stream size                              : 127 MiB (1%)
  59. Title                                    : Everly.2014.1080p.BluRay.REMUX.AVC.DTS-HD.MA.5.1-RARBG
  60. Language                                 : English
  61. Default                                  : No
  62. Forced                                   : No

  63. Audio #3
  64. ID                                       : 4
  65. Format                                   : AC-3
  66. Format/Info                              : Audio Coding 3
  67. Mode extension                           : CM (complete main)
  68. Format settings, Endianness              : Big
  69. Codec ID                                 : A_AC3
  70. Duration                                 : 1h 32mn
  71. Bit rate mode                            : Constant
  72. Bit rate                                 : 192 Kbps
  73. Channel(s)                               : 2 channels
  74. Channel positions                        : Front: L R
  75. Sampling rate                            : 48.0 KHz
  76. Bit depth                                : 16 bits
  77. Compression mode                         : Lossy
  78. Stream size                              : 127 MiB (1%)
  79. Title                                    : Everly.2014.1080p.BluRay.REMUX.AVC.DTS-HD.MA.5.1-RARBG
  80. Language                                 : English
  81. Default                                  : No
  82. Forced                                   : No

  83. Audio #4
  84. ID                                       : 5
  85. Format                                   : DTS
  86. Format/Info                              : Digital Theater Systems
  87. Mode                                     : 16
  88. Format settings, Endianness              : Big
  89. Codec ID                                 : A_DTS
  90. Duration                                 : 1h 32mn
  91. Bit rate mode                            : Constant
  92. Bit rate                                 : 1 509 Kbps
  93. Channel(s)                               : 6 channels
  94. Channel positions                        : Front: L C R, Side: L R, LFE
  95. Sampling rate                            : 48.0 KHz
  96. Bit depth                                : 24 bits
  97. Compression mode                         : Lossy
  98. Stream size                              : 997 MiB (5%)
  99. Title                                    : Everly.2014.1080p.BluRay.REMUX.AVC.DTS-HD.MA.5.1-RARBG
  100. Language                                 : English
  101. Default                                  : No
  102. Forced                                   : No

  103. Text #1
  104. ID                                       : 6
  105. Format                                   : PGS
  106. Muxing mode                              : zlib
  107. Codec ID                                 : S_HDMV/PGS
  108. Codec ID/Info                            : The same subtitle format used on BDs/HD-DVDs
  109. Language                                 : English
  110. Default                                  : No
  111. Forced                                   : No

  112. Text #2
  113. ID                                       : 7
  114. Format                                   : PGS
  115. Muxing mode                              : zlib
  116. Codec ID                                 : S_HDMV/PGS
  117. Codec ID/Info                            : The same subtitle format used on BDs/HD-DVDs
  118. Language                                 : English
  119. Default                                  : No
  120. Forced                                   : No

  121. Text #3
  122. ID                                       : 8
  123. Format                                   : PGS
  124. Muxing mode                              : zlib
  125. Codec ID                                 : S_HDMV/PGS
  126. Codec ID/Info                            : The same subtitle format used on BDs/HD-DVDs
  127. Language                                 : Spanish
  128. Default                                  : No
  129. Forced                                   : No

  130. Menu
  131. 00:00:00.000                             : en01)00:00:00:000
  132. 00:07:58.561                             : en02)00:07:58:561
  133. 00:14:23.696                             : en03)00:14:23:696
  134. 00:21:51.727                             : en04)00:21:51:727
  135. 00:29:06.661                             : en05)00:29:06:661
  136. 00:34:15.636                             : en06)00:34:15:636
  137. 00:38:45.614                             : en07)00:38:45:614
  138. 00:46:10.434                             : en000:46:10:434
  139. 00:51:20.827                             : en09)00:51:20:827
  140. 00:56:57.664                             : en10)00:56:57:664
  141. 01:02:18.943                             : en11)01:02:18:943
  142. 01:07:53.819                             : en12)01:07:53:819
  143. 01:17:14.630                             : en13)01:17:14:630
  144. 01:26:26.347                             : en14)01:26:26:347
  145. 01:32:20.952                             : en15)01:32:20:952
复制代码

复制代码

-------------------------
◎出色剧照
112800r4v0ljjjgjvjd04w.jpg
112800alozye1koht13t33.jpg
112802ho293e33x9arxdxr.jpg

-------------------------
[以上高清电影剧照来自互联网,不代表此片高清剧照]
慎重声明:本站供给的一切高清电影作品均是在网上汇集,任何触及贸易盈利目标均不得利用,否则发生的一切结果将由您自己承当!本站将差池本站的任何内容负任何法令义务!该下载内容仅做宽带测试利用,请鄙人载后24小时内删除。请采办正
版!
-------------------------
◎种子下载地址
旅客,假如您要检察本帖隐藏内容请答复
回复

使用道具 举报

懒得打字嘛,点击右侧快捷回复 【右侧内容,后台自定义】
您需要登录后才可以回帖 登录 | 立即加入

本版积分规则

Archiver|小黑屋| 蓝光电影网 |网站地图

Copyright © 2021 Comsenz Inc. Powered by 蓝光电影网

蓝光电影网

本站内容由用户自主分享和转载自互联网,转载目的在于传递更多信息,并不代表本网赞同其观点和对其真实性负责。

如有侵权、违反国家法律政策行为,请联系我们,我们会第一时间及时清除和处理!

举报反馈邮箱:[email protected]

快速回复 返回顶部 返回列表