找回密码

蓝光电影网

查看: 734|回复: 2

[美国][动画][鲁尼曲调的猫和老鼠编年史][REMUX][1080P-19.03G][MKV]DD1.0

[复制链接]
蓝光币
382
发表于 2015-9-12 18:52:41 | 显示全部楼层 |阅读模式



[美国][动画][鲁尼曲调的猫和老鼠纪年史][REMUX][1080P-19.03G][MKV]DD1.0
224624h2c5iw3unmqzec7q.jpg

◎影片根基信息
◎译  名 猫和老鼠纪年史
◎片  名 Looney.Tunes.Mouse.Chronicles
◎年  代 1939_1951
◎国  家 美国
◎类  别 动画
◎语  言 英语
◎字  幕 英文
◎片  长 8mn 3s
◎导  演 威廉·汉纳
◎主  演 弗雷德·昆比
                   约瑟夫·巴伯拉
影片: Looney.Tunes.Mouse.Chronicles.1939-1951.1080p.BluRay.REMUX.AVC.DD1.0-RARBG

◎剧情简介
       《猫和老鼠》动画片是制片人弗雷德·昆比、导演威廉·汉纳及约瑟夫·巴伯拉于动画片海报(6张)1939年创作的。

      《猫和老鼠》共有116个漫画形象,每一集选2至3个分歧性情的形象搭配在一路,论述一个“噱头”故事。它的故事内容单一,总是人料想,但又符合道理,表现出作者的超人聪明。它采用的哑剧形式,完全依靠滑稽行动而不用对白,与《米老鼠和唐老鸭》相比,后者的故事究竟表述什么,偶然并不轻易搞清,而《猫和老鼠》的哑剧却大白直观,给观众的印象极为鲜明深入。《米老鼠和唐老鸭》风行天下几十年,其外型、配音以及强大的宣传起了重要的感化,而《猫和老鼠》几近没有对白,靠的美满是活泼的形象与情节盘曲、设想丰富的故事。

      《汤姆和杰里》前后共出过200多部动画片,其中(1943年)《傻老鼠扬基》,(1944年)《老鼠的麻烦》,(1945年)《请恬静》,(1946年)《猫儿协奏曲》,(1949年)《小孤儿》,(1952年)《两只凯蒂尔鼠》和(1953年)《老鼠约翰》获得过奥斯卡金奖,(1940)《甜蜜的家》,(1941)《圣诞前夜》,(1947)《杰克尔博士和老鼠师长》,(1957)《啄木鸟》,(1951)《杰瑞的表兄》,(1954)《心爱的小猫咪》曾被斯卡提名,在好莱坞动画史上它也是获得过奥斯卡金奖最多的动画片。

Disc 1: Sniffles
1. Naughty but Mice (1939)
2. Little Brother Rat (1939)
3. Sniffles and Bookworm (1939)
4. Sniffles Takes a Trip (1940)
5. The Egg Collector (1940)
6. Bedtime for Sniffles (1940)
7. Sniffles Bells the Cat (1941)
8. Toy Trouble (1941)
9. The Brave Little Bat (1941)
10. The Unbearable Bear (1943)
11. Lost and Foundling (1944)
12. Hush My Mouse (1946)

Disc 2: Hubie and Bertie
1. The Aristo-Cat (1943)
2. Trap Happy Porky (1945)
3. Roughly Squeaking (1946)
4. House Hunting Mice (1947)
5. Mouse Wreckers (1949)
6. The Hypo-Chondri-Cat (1950)
7. Cheese Chasers (1951)

Extras (HD)
8. Of Mice and Pens (8.19)

Video
ID                                       : 1
Format                                   : AVC
Format/Info                              : Advanced Video Codec
Format profile                           : [email protected]
Format settings, CABAC                   : Yes
Format settings, ReFrames                : 2 frames
Codec ID                                 : V_MPEG4/ISO/AVC
Duration                                 : 8mn 3s
Bit rate mode                            : Variable
Bit rate                                 : 17.5 Mbps
Width                                    : 1 920 pixels
Height                                   : 1 080 pixels
Display aspect ratio                     : 16:9
Frame rate mode                          : Constant
Frame rate                               : 23.976 fps
Color space                              : YUV
Chroma subsampling                       : 4:2:0
Bit depth                                : 8 bits
Scan type                                : Progressive
Bits/(Pixel*Frame)                       : 0.352
Stream size                              : 1 010 MiB (97%)
Default                                  : Yes
Forced                                   : No

Audio
ID                                       : 2
Format                                   : AC-3
Format/Info                              : Audio Coding 3
Mode extension                           : CM (complete main)
Format settings, Endianness              : Big
Codec ID                                 : A_AC3
Duration                                 : 8mn 3s
Bit rate mode                            : Constant
Bit rate                                 : 192 Kbps
Channel(s)                               : 1 channel
Channel positions                        : Front: C
Sampling rate                            : 48.0 KHz
Bit depth                                : 16 bits
Compression mode                         : Lossy
Stream size                              : 11.1 MiB (1%)
Language                                 : English
Default                                  : Yes
Forced                                   : No

Text
ID                                       : 3
Format                                   : PGS
Muxing mode                              : zlib
Codec ID                                 : S_HDMV/PGS
Codec ID/Info                            : The same subtitle format used on BDs/HD-DVDs
Language                                 : English
Default                                  : Yes
Forced                                   : No
-------------------------


复制代码

复制代码

-------------------------
◎出色剧照
224611yq8llqyaldyqplll.jpg
224613a3j7j77c7j77zl5j.jpg
224615h9z9cavtzbxlvllz.jpg
224621jqqguhr87vq3hwus.jpg

-------------------------
[以上高清电影剧照来自互联网,不代表此片高清剧照]
慎重声明:本站供给的一切高清电影作品均是在网上汇集,任何触及贸易盈利目标均不得利用,否则发生的一切结果将由您自己承当!本站将差池本站的任何内容负任何法令义务!该下载内容仅做宽带测试利用,请鄙人载后24小时内删除。请采办正
版!
-------------------------
◎种子下载地址
旅客,假如您要检察本帖隐藏内容请答复
回复

使用道具 举报

懒得打字嘛,点击右侧快捷回复 【右侧内容,后台自定义】
您需要登录后才可以回帖 登录 | 立即加入

本版积分规则

Archiver|小黑屋| 蓝光电影网 |网站地图

Copyright © 2021 Comsenz Inc. Powered by 蓝光电影网

蓝光电影网

本站内容由用户自主分享和转载自互联网,转载目的在于传递更多信息,并不代表本网赞同其观点和对其真实性负责。

如有侵权、违反国家法律政策行为,请联系我们,我们会第一时间及时清除和处理!

举报反馈邮箱:[email protected]

快速回复 返回顶部 返回列表