找回密码

蓝光电影网

查看: 1320|回复: 3

[2014][法国][动画][阿斯特里克斯历险记:诸神之宫殿/高卢英雄历险记:诸神之宫殿][REMUX][1080P-25.11G][MKV]DTS

[复制链接]
蓝光币
426
发表于 2015-9-12 19:16:26 | 显示全部楼层 |阅读模式

[2014][法国][动画][阿斯特里克斯历险记:诸神之宫殿/高卢豪杰历险记:诸神之宫殿][REMUX][1080P-25.11G][MKV]DTS
095916qfihx8xzfmdmlili.jpg

◎影片根基信息
巨细: 25.11G
清楚度: 1080P
视频: MKV
豆瓣评分: 7.0
导演: Alexandre Astier
编剧: Louis Clichy
主演: Alain Chabat / Laurent Lafitte / Géraldine Nakache
制片国家/地域: 法国
说话: 法语
上映日期: 2014-11-26(法国)
影片:

◎剧情简介
       公元前50年,高卢被罗马人占据,除了一个仍顽强抵抗的村落。随着情势的恶化,恺撒大帝决议改变战略:不依靠武力征服,而操纵罗马文化来勾引这些蛮横的高卢人。凯撒为了淡化阿斯特里克斯村落的团结,削弱当地的风俗,在高卢四周建立一个度假村。村民前方百计破坏这项工程,首先是奇异的森林补植,然后在罗马人搬入新夏后吓跑他们,最初又将刚迁入的罗马兵团痛打···
-------------------------


  1. Video
  2. ID                                       : 1
  3. Format                                   : AVC
  4. Format/Info                              : Advanced Video Codec
  5. Format profile                           : [email protected]
  6. Format settings, CABAC                   : Yes
  7. Format settings, ReFrames                : 2 frames
  8. Codec ID                                 : V_MPEG4/ISO/AVC
  9. Duration                                 : 1h 25mn
  10. Bit rate mode                            : Variable
  11. Width                                    : 1 920 pixels
  12. Height                                   : 1 080 pixels
  13. Display aspect ratio                     : 16:9
  14. Frame rate mode                          : Constant
  15. Frame rate                               : 23.976 fps
  16. Color space                              : YUV
  17. Chroma subsampling                       : 4:2:0
  18. Bit depth                                : 8 bits
  19. Scan type                                : Progressive
  20. Title                                    : Asterix.The.Mansions.of.the.Gods.2014.FRENCH.1080p.BluRay.REMUX.AVC.DTS-HD.MA.5.1-RARBG
  21. Language                                 : English
  22. Default                                  : Yes
  23. Forced                                   : No

  24. Audio #1
  25. ID                                       : 2
  26. Format                                   : DTS
  27. Format/Info                              : Digital Theater Systems
  28. Format profile                           : MA / Core
  29. Mode                                     : 16
  30. Format settings, Endianness              : Big
  31. Codec ID                                 : A_DTS
  32. Duration                                 : 1h 25mn
  33. Bit rate mode                            : Variable
  34. Bit rate                                 : Unknown / 1 509 Kbps
  35. Channel(s)                               : 6 channels
  36. Channel positions                        : Front: L C R, Side: L R, LFE
  37. Sampling rate                            : 48.0 KHz
  38. Bit depth                                : 24 bits
  39. Compression mode                         : Lossless / Lossy
  40. Title                                    : Asterix.The.Mansions.of.the.Gods.2014.FRENCH.1080p.BluRay.REMUX.AVC.DTS-HD.MA.5.1-RARBGSurround 5.1
  41. Language                                 : French
  42. Default                                  : No
  43. Forced                                   : No

  44. Audio #2
  45. ID                                       : 3
  46. Format                                   : DTS
  47. Format/Info                              : Digital Theater Systems
  48. Mode                                     : 16
  49. Format settings, Endianness              : Big
  50. Codec ID                                 : A_DTS
  51. Duration                                 : 1h 25mn
  52. Bit rate mode                            : Constant
  53. Bit rate                                 : 1 509 Kbps
  54. Channel(s)                               : 6 channels
  55. Channel positions                        : Front: L C R, Side: L R, LFE
  56. Sampling rate                            : 48.0 KHz
  57. Bit depth                                : 24 bits
  58. Compression mode                         : Lossy
  59. Stream size                              : 923 MiB (4%)
  60. Title                                    : Surround 5.1
  61. Language                                 : French
  62. Default                                  : No
  63. Forced                                   : No

  64. Audio #3
  65. ID                                       : 4
  66. Format                                   : DTS
  67. Format/Info                              : Digital Theater Systems
  68. Format profile                           : MA / Core
  69. Mode                                     : 16
  70. Format settings, Endianness              : Big
  71. Codec ID                                 : A_DTS
  72. Duration                                 : 1h 25mn
  73. Bit rate mode                            : Variable
  74. Bit rate                                 : Unknown / 768 Kbps
  75. Channel(s)                               : 2 channels
  76. Channel positions                        : Front: L R
  77. Sampling rate                            : 48.0 KHz
  78. Bit depth                                : 24 bits
  79. Compression mode                         : Lossless / Lossy
  80. Title                                    : Asterix.The.Mansions.of.the.Gods.2014.FRENCH.1080p.BluRay.REMUX.AVC.DTS-HD.MA.5.1-RARBG
  81. Language                                 : French
  82. Default                                  : No
  83. Forced                                   : No

  84. Audio #4
  85. ID                                       : 5
  86. Format                                   : DTS
  87. Format/Info                              : Digital Theater Systems
  88. Mode                                     : 16
  89. Format settings, Endianness              : Big
  90. Codec ID                                 : A_DTS
  91. Duration                                 : 1h 25mn
  92. Bit rate mode                            : Constant
  93. Bit rate                                 : 768 Kbps
  94. Channel(s)                               : 2 channels
  95. Channel positions                        : Front: L R
  96. Sampling rate                            : 48.0 KHz
  97. Bit depth                                : 24 bits
  98. Compression mode                         : Lossy
  99. Stream size                              : 470 MiB (2%)
  100. Title                                    : Asterix.The.Mansions.of.the.Gods.2014.FRENCH.1080p.BluRay.REMUX.AVC.DTS-HD.MA.5.1-RARBG
  101. Language                                 : French
  102. Default                                  : No
  103. Forced                                   : No

  104. Audio #5
  105. ID                                       : 6
  106. Format                                   : DTS
  107. Format/Info                              : Digital Theater Systems
  108. Mode                                     : 16
  109. Format settings, Endianness              : Big
  110. Codec ID                                 : A_DTS
  111. Duration                                 : 1h 25mn
  112. Bit rate mode                            : Constant
  113. Bit rate                                 : 768 Kbps
  114. Channel(s)                               : 2 channels
  115. Channel positions                        : Front: L R
  116. Sampling rate                            : 48.0 KHz
  117. Bit depth                                : 16 bits
  118. Compression mode                         : Lossy
  119. Stream size                              : 470 MiB (2%)
  120. Title                                    : Asterix.The.Mansions.of.the.Gods.2014.FRENCH.1080p.BluRay.REMUX.AVC.DTS-HD.MA.5.1-RARBG
  121. Language                                 : French
  122. Default                                  : No
  123. Forced                                   : No

  124. Text
  125. ID                                       : 7
  126. Format                                   : PGS
  127. Muxing mode                              : zlib
  128. Codec ID                                 : S_HDMV/PGS
  129. Codec ID/Info                            : The same subtitle format used on BDs/HD-DVDs
  130. Language                                 : French
  131. Default                                  : No
  132. Forced                                   : No

  133. Menu
  134. 00:00:00.000                             : en:Chapter 01
  135. 00:09:03.876                             : en:Chapter 02
  136. 00:14:36.750                             : en:Chapter 03
  137. 00:22:27.304                             : en:Chapter 04
  138. 00:30:27.200                             : en:Chapter 05
  139. 00:36:09.876                             : en:Chapter 06
  140. 00:44:59.405                             : en:Chapter 07
  141. 00:51:43.183                             : en:Chapter 08
  142. 00:56:12.202                             : en:Chapter 09
  143. 01:04:48.676                             : en:Chapter 10
  144. 01:10:19.840                             : en:Chapter 11
  145. 01:20:16.645                             : en:Chapter 12
复制代码

复制代码

-------------------------
◎出色剧照
095906ro6idvsz6diuagpr.jpg
095907radbn88w8ghhgd8n.jpg
095913tm85usgbmmgh4ghs.jpg

-------------------------
[以上高清电影剧照来自互联网,不代表此片高清剧照]
慎重声明:本站供给的一切高清电影作品均是在网上汇集,任何触及贸易盈利目标均不得利用,否则发生的一切结果将由您自己承当!本站将差池本站的任何内容负任何法令义务!该下载内容仅做宽带测试利用,请鄙人载后24小时内删除。请采办正
版!
-------------------------
◎种子下载地址
旅客,假如您要检察本帖隐藏内容请答复
回复

使用道具 举报

懒得打字嘛,点击右侧快捷回复 【右侧内容,后台自定义】
您需要登录后才可以回帖 登录 | 立即加入

本版积分规则

Archiver|小黑屋| 蓝光电影网 |网站地图

Copyright © 2021 Comsenz Inc. Powered by 蓝光电影网

蓝光电影网

本站内容由用户自主分享和转载自互联网,转载目的在于传递更多信息,并不代表本网赞同其观点和对其真实性负责。

如有侵权、违反国家法律政策行为,请联系我们,我们会第一时间及时清除和处理!

举报反馈邮箱:[email protected]

快速回复 返回顶部 返回列表