找回密码

蓝光电影网

查看: 1693|回复: 4

[2004][恐怖/喜剧][英国][杠上活死人/僵尸肖恩/笑死人凶间/活死人情缘/活人生吃][1080P-11G][MKV]DTS

[复制链接]
蓝光币
382
发表于 2015-9-12 19:16:57 | 显示全部楼层 |阅读模式

[2004][可骇/笑剧][英国][杠上活死人/僵尸肖恩/笑死人凶间/活死人情缘/活人生吃][1080P-11G][MKV]DTS
094020fpzwa7ca7gi6zecc.jpg

◎影片根基信息
巨细: 11G
清楚度: 1080P
视频: MKV
豆瓣评分: 7.7
导演: 埃德加·赖特
编剧: 埃德加·赖特 / 西蒙·佩吉
主演: 西蒙·佩吉 / 尼克·弗罗斯特 / 比尔·奈伊 / 凯特·阿什菲尔德 / 彼得·塞拉菲诺威茨 / 更多...
范例: 笑剧 / 可骇
制片国家/地域: 英国 / 法国 / 美国
说话: 英语
上映日期: 2004-04-09(英国)
片长: 99 分钟
别名: 杠上活死人 / 笑死人凶间 / 活死人情缘 / 活人生吃
影片: Shaun.of.the.Dead.2004.1080p.BluRay.x264.DTS-FGT

◎剧情简介
       肖恩(西蒙·佩吉 Simon Pegg 饰)奇迹不快意,恋爱也不怎样顺心。熟悉了一帮一样游手好闲的朋友,成天和他们厮混,包括皮特,和只会打机和讨人厌的艾德。可贵肖恩为了女朋友抖擞一次,却遭到同事嘲笑,女友也不能会意,肖恩只要继续和朋友醉酒纵乐。
  但此日全部城市却有了天翻地覆的变化。僵尸入侵了,只如果被他们咬到的人,城市随之酿成僵尸。而肖恩正和艾德在酒吧里牛饮,却发现堕入僵尸的重重包围中。现在肖恩必须拿出豪杰气概,去保卫家人朋友。
-------------------------

  1. Video
  2. ID                                       : 1
  3. Format                                   : AVC
  4. Format/Info                              : Advanced Video Codec
  5. Format profile                           : [email protected]
  6. Format settings, CABAC                   : Yes
  7. Format settings, ReFrames                : 5 frames
  8. Codec ID                                 : V_MPEG4/ISO/AVC
  9. Duration                                 : 1h 39mn
  10. Bit rate                                 : 14.0 Mbps
  11. Width                                    : 1 876 pixels
  12. Height                                   : 822 pixels
  13. Display aspect ratio                     : 2.25:1
  14. Frame rate mode                          : Constant
  15. Frame rate                               : 23.976 fps
  16. Color space                              : YUV
  17. Chroma subsampling                       : 4:2:0
  18. Bit depth                                : 8 bits
  19. Scan type                                : Progressive
  20. Bits/(Pixel*Frame)                       : 0.379
  21. Stream size                              : 9.51 GiB (86%)
  22. Writing library                          : x264 core 68 r1183M f21daff
  23. Encoding settings                        : cabac=1 / ref=5 / deblock=1:-3:-3 / analyse=0x3:0x133 / me=umh / subme=9 / psy_rd=1.1:0.0 / mixed_ref=1 / me_range=64 / chroma_me=1 / trellis=2 / 8x8dct=1 / cqm=0 / deadzone=21,11 / chroma_qp_offset=-2 / threads=12 / nr=0 / decimate=0 / mbaff=0 / bframes=10 / b_pyramid=1 / b_adapt=2 / b_bias=0 / direct=3 / wpredb=1 / keyint=250 / keyint_min=25 / scenecut=40 / rc=2pass / bitrate=14000 / ratetol=1.0 / qcomp=0.60 / qpmin=10 / qpmax=51 / qpstep=4 / cplxblur=20.0 / qblur=0.5 / ip_ratio=1.40 / pb_ratio=1.30 / aq=1:1.00
  24. Language                                 : English
  25. Default                                  : Yes
  26. Forced                                   : No

  27. Audio #1
  28. ID                                       : 2
  29. Format                                   : DTS
  30. Format/Info                              : Digital Theater Systems
  31. Mode                                     : 16
  32. Format settings, Endianness              : Big
  33. Codec ID                                 : A_DTS
  34. Duration                                 : 1h 39mn
  35. Bit rate mode                            : Constant
  36. Bit rate                                 : 1 509 Kbps
  37. Channel(s)                               : 6 channels
  38. Channel positions                        : Front: L C R, Side: L R, LFE
  39. Sampling rate                            : 48.0 KHz
  40. Bit depth                                : 24 bits
  41. Compression mode                         : Lossy
  42. Stream size                              : 1.05 GiB (10%)
  43. Language                                 : English
  44. Default                                  : Yes
  45. Forced                                   : No

  46. Audio #2
  47. ID                                       : 3
  48. Format                                   : Vorbis
  49. Format settings, Floor                   : 1
  50. Codec ID                                 : A_VORBIS
  51. Duration                                 : 1h 39mn
  52. Bit rate mode                            : Variable
  53. Bit rate                                 : 80.0 Kbps
  54. Channel(s)                               : 2 channels
  55. Sampling rate                            : 44.1 KHz
  56. Compression mode                         : Lossy
  57. Stream size                              : 56.9 MiB (1%)
  58. Title                                    : Commentary with Simon Pegg and Edgar Wright
  59. Writing library                          : libVorbis 20090709 (UTC 2009-07-09)
  60. Language                                 : English
  61. Default                                  : No
  62. Forced                                   : No
  63. Writing application                      : VLC media player

  64. Audio #3
  65. ID                                       : 4
  66. Format                                   : Vorbis
  67. Format settings, Floor                   : 1
  68. Codec ID                                 : A_VORBIS
  69. Duration                                 : 1h 39mn
  70. Bit rate mode                            : Variable
  71. Bit rate                                 : 80.0 Kbps
  72. Channel(s)                               : 2 channels
  73. Sampling rate                            : 44.1 KHz
  74. Compression mode                         : Lossy
  75. Stream size                              : 56.9 MiB (1%)
  76. Title                                    : Commentary with Simon Pegg, Nick Frost, Dylan Moran, Kate Ashfield, and Lucy Davis
  77. Writing library                          : libVorbis 20090709 (UTC 2009-07-09)
  78. Language                                 : English
  79. Default                                  : No
  80. Forced                                   : No
  81. Writing application                      : VLC media player

  82. Audio #4
  83. ID                                       : 5
  84. Format                                   : Vorbis
  85. Format settings, Floor                   : 1
  86. Codec ID                                 : A_VORBIS
  87. Duration                                 : 1h 39mn
  88. Bit rate mode                            : Variable
  89. Bit rate                                 : 80.0 Kbps
  90. Channel(s)                               : 2 channels
  91. Sampling rate                            : 44.1 KHz
  92. Compression mode                         : Lossy
  93. Stream size                              : 56.9 MiB (1%)
  94. Title                                    : Commentary with Bill Nighy and Penelope Wilton
  95. Writing library                          : libVorbis 20090709 (UTC 2009-07-09)
  96. Language                                 : English
  97. Default                                  : No
  98. Forced                                   : No
  99. Writing application                      : VLC media player

  100. Audio #5
  101. ID                                       : 6
  102. Format                                   : Vorbis
  103. Format settings, Floor                   : 1
  104. Codec ID                                 : A_VORBIS
  105. Duration                                 : 1h 39mn
  106. Bit rate mode                            : Variable
  107. Bit rate                                 : 80.0 Kbps
  108. Channel(s)                               : 2 channels
  109. Sampling rate                            : 44.1 KHz
  110. Compression mode                         : Lossy
  111. Stream size                              : 56.9 MiB (1%)
  112. Title                                    : Commentary with the Zombies (no, not Rob and Sherri Moon)
  113. Writing library                          : libVorbis 20090709 (UTC 2009-07-09)
  114. Language                                 : English
  115. Default                                  : No
  116. Forced                                   : No
  117. Writing application                      : VLC media player
复制代码

复制代码

-------------------------
◎出色剧照
094018mb9cpgluotpqtrbl.jpg
094019kf40o53rrbffaca9.jpg
094019fdx2f6365xh6s88k.jpg

-------------------------
[以上高清电影剧照来自互联网,不代表此片高清剧照]
慎重声明:本站供给的一切高清电影作品均是在网上汇集,任何触及贸易盈利目标均不得利用,否则发生的一切结果将由您自己承当!本站将差池本站的任何内容负任何法令义务!该下载内容仅做宽带测试利用,请鄙人载后24小时内删除。请采办正
版!
-------------------------
◎种子下载地址
旅客,假如您要检察本帖隐藏内容请答复
回复

使用道具 举报

蓝光币
1
发表于 2019-5-29 20:06:36 | 显示全部楼层
经典电影啊,就是不知道还下不下得动。
回复 支持 反对

使用道具 举报

蓝光币
1
发表于 2019-6-7 22:12:09 | 显示全部楼层
这个资源是不是太老了下不动啊?
回复 支持 反对

使用道具 举报

蓝光币
224
发表于 2019-9-10 20:39:33 | 显示全部楼层
谢谢分享
回复

使用道具 举报

蓝光币
3
发表于 2019-9-21 16:31:30 | 显示全部楼层
奥术大师大所大撒所
回复 支持 反对

使用道具 举报

懒得打字嘛,点击右侧快捷回复 【右侧内容,后台自定义】
您需要登录后才可以回帖 登录 | 立即加入

本版积分规则

Archiver|小黑屋| 蓝光电影网 |网站地图

Copyright © 2021 Comsenz Inc. Powered by 蓝光电影网

蓝光电影网

本站内容由用户自主分享和转载自互联网,转载目的在于传递更多信息,并不代表本网赞同其观点和对其真实性负责。

如有侵权、违反国家法律政策行为,请联系我们,我们会第一时间及时清除和处理!

举报反馈邮箱:[email protected]

快速回复 返回顶部 返回列表