找回密码

蓝光电影网

查看: 989|回复: 1

[2014][美国][恐怖][幸存者/末日残骸][REMUX][1080P-20.7G][MKV]DTS

[复制链接]
蓝光币
382
发表于 2015-9-12 19:51:59 | 显示全部楼层 |阅读模式

[2014][美国][可骇][幸存者/末日残骸][REMUX][1080P-20.7G][MKV]DTS
100938j2f1ze0fq2fqmntq.jpg

◎影片根基信息
巨细: 20.7G
清楚度: 1080P
视频: MKV
豆瓣评分: 3.7
导演: Casey La Scala
编剧: Chris Dowling / Casey La Scala
主演: 约翰尼·帕卡 / 肖恩·西珀斯 / Bryan Dechart / 阿丽夏·维加 / 伊塔莉·里奇 / 更多...
范例: 惊悚 / 可骇
制片国家/地域: 美国
说话: 英语
上映日期: 2014-09-05(美国)
别名: 末日残骸
影片: The.Remaining.2014.1080p.BluRay.REMUX.AVC.DTS-HD.MA.5.1-RARBG

◎剧情简介
       一座奢华酒店内,汤米(约翰尼·帕卡 Johnny Pacar 饰)、杰克(肖恩·西珀斯 Shaun Sipos 饰)、艾莉(伊塔莉·里奇 Italia Ricci 饰)等青年男女云集于此,热切期盼好友丹(布莱恩·德恰特 Bryan Dechart 饰)和斯凯拉(阿丽夏·维加 Alexa Vega 饰)的婚礼尽快举行。婚礼完善浪漫,担任摄像工作的汤米忽然目击了斯凯拉怙恃意外灭亡的一幕。当他跑出电梯,发现酒店内已乱作一团,很多人不明原由死去,稍后持续不断的天灾来临小镇,平和安好的小镇霎时候酿成了人世天堂。斯凯拉深信这正是《圣经》上所说的天下末日,持续不断发生的诡异事务让幸存者们渐渐相信了这样的说辞。
  末日审判,谁能逃走?
-------------------------

  1. Video
  2. ID                                       : 1
  3. Format                                   : AVC
  4. Format/Info                              : Advanced Video Codec
  5. Format profile                           : [email protected]
  6. Format settings, CABAC                   : Yes
  7. Format settings, ReFrames                : 2 frames
  8. Codec ID                                 : V_MPEG4/ISO/AVC
  9. Duration                                 : 1h 27mn
  10. Bit rate mode                            : Variable
  11. Width                                    : 1 920 pixels
  12. Height                                   : 1 080 pixels
  13. Display aspect ratio                     : 16:9
  14. Frame rate mode                          : Constant
  15. Frame rate                               : 23.976 fps
  16. Color space                              : YUV
  17. Chroma subsampling                       : 4:2:0
  18. Bit depth                                : 8 bits
  19. Scan type                                : Progressive
  20. Language                                 : English
  21. Default                                  : No
  22. Forced                                   : No

  23. Audio #1
  24. ID                                       : 2
  25. Format                                   : DTS
  26. Format/Info                              : Digital Theater Systems
  27. Format profile                           : MA / Core
  28. Mode                                     : 16
  29. Format settings, Endianness              : Big
  30. Codec ID                                 : A_DTS
  31. Duration                                 : 1h 27mn
  32. Bit rate mode                            : Variable
  33. Bit rate                                 : Unknown / 1 509 Kbps
  34. Channel(s)                               : 6 channels
  35. Channel positions                        : Front: L C R, Side: L R, LFE
  36. Sampling rate                            : 48.0 KHz
  37. Bit depth                                : 16 bits
  38. Compression mode                         : Lossless / Lossy
  39. Title                                    : Surround 5.1
  40. Language                                 : English
  41. Default                                  : Yes
  42. Forced                                   : No

  43. Audio #2
  44. ID                                       : 3
  45. Format                                   : DTS
  46. Format/Info                              : Digital Theater Systems
  47. Mode                                     : 16
  48. Format settings, Endianness              : Big
  49. Codec ID                                 : A_DTS
  50. Duration                                 : 1h 27mn
  51. Bit rate mode                            : Constant
  52. Bit rate                                 : 1 509 Kbps
  53. Channel(s)                               : 6 channels
  54. Channel positions                        : Front: L C R, Side: L R, LFE
  55. Sampling rate                            : 48.0 KHz
  56. Bit depth                                : 16 bits
  57. Compression mode                         : Lossy
  58. Stream size                              : 948 MiB (4%)
  59. Title                                    : Surround 5.1
  60. Language                                 : English
  61. Default                                  : No
  62. Forced                                   : No

  63. Audio #3
  64. ID                                       : 4
  65. Format                                   : AC-3
  66. Format/Info                              : Audio Coding 3
  67. Mode extension                           : CM (complete main)
  68. Format settings, Endianness              : Big
  69. Codec ID                                 : A_AC3
  70. Duration                                 : 1h 27mn
  71. Bit rate mode                            : Constant
  72. Bit rate                                 : 640 Kbps
  73. Channel(s)                               : 6 channels
  74. Channel positions                        : Front: L C R, Side: L R, LFE
  75. Sampling rate                            : 48.0 KHz
  76. Bit depth                                : 16 bits
  77. Compression mode                         : Lossy
  78. Stream size                              : 402 MiB (2%)
  79. Title                                    : Surround 5.1
  80. Language                                 : English
  81. Default                                  : No
  82. Forced                                   : No

  83. Audio #4
  84. ID                                       : 5
  85. Format                                   : DTS
  86. Format/Info                              : Digital Theater Systems
  87. Format profile                           : MA / Core
  88. Mode                                     : 16
  89. Format settings, Endianness              : Big
  90. Codec ID                                 : A_DTS
  91. Duration                                 : 1h 27mn
  92. Bit rate mode                            : Variable
  93. Bit rate                                 : Unknown / 1 509 Kbps
  94. Channel(s)                               : 6 channels
  95. Channel positions                        : Front: L C R, Side: L R, LFE
  96. Sampling rate                            : 48.0 KHz
  97. Bit depth                                : 16 bits
  98. Compression mode                         : Lossless / Lossy
  99. Title                                    : Surround 5.1
  100. Language                                 : French
  101. Default                                  : No
  102. Forced                                   : No

  103. Audio #5
  104. ID                                       : 6
  105. Format                                   : DTS
  106. Format/Info                              : Digital Theater Systems
  107. Mode                                     : 16
  108. Format settings, Endianness              : Big
  109. Codec ID                                 : A_DTS
  110. Duration                                 : 1h 27mn
  111. Bit rate mode                            : Constant
  112. Bit rate                                 : 1 509 Kbps
  113. Channel(s)                               : 6 channels
  114. Channel positions                        : Front: L C R, Side: L R, LFE
  115. Sampling rate                            : 48.0 KHz
  116. Bit depth                                : 16 bits
  117. Compression mode                         : Lossy
  118. Stream size                              : 948 MiB (4%)
  119. Title                                    : Surround 5.1
  120. Language                                 : French
  121. Default                                  : No
  122. Forced                                   : No

  123. Audio #6
  124. ID                                       : 7
  125. Format                                   : AC-3
  126. Format/Info                              : Audio Coding 3
  127. Mode extension                           : CM (complete main)
  128. Format settings, Endianness              : Big
  129. Codec ID                                 : A_AC3
  130. Duration                                 : 1h 27mn
  131. Bit rate mode                            : Constant
  132. Bit rate                                 : 640 Kbps
  133. Channel(s)                               : 6 channels
  134. Channel positions                        : Front: L C R, Side: L R, LFE
  135. Sampling rate                            : 48.0 KHz
  136. Bit depth                                : 16 bits
  137. Compression mode                         : Lossy
  138. Stream size                              : 402 MiB (2%)
  139. Title                                    : Surround 5.1
  140. Language                                 : Spanish
  141. Default                                  : No
  142. Forced                                   : No
复制代码

复制代码

-------------------------
◎出色剧照
100933iqylhjz3211ji0ij.jpg
100935u4m8hzbq2qjjkwu3.jpg
100936rk5nhk1cpw2q2nhd.jpg

-------------------------
[以上高清电影剧照来自互联网,不代表此片高清剧照]
慎重声明:本站供给的一切高清电影作品均是在网上汇集,任何触及贸易盈利目标均不得利用,否则发生的一切结果将由您自己承当!本站将差池本站的任何内容负任何法令义务!该下载内容仅做宽带测试利用,请鄙人载后24小时内删除。请采办正
版!
-------------------------
◎种子下载地址
旅客,假如您要检察本帖隐藏内容请答复
回复

使用道具 举报

懒得打字嘛,点击右侧快捷回复 【右侧内容,后台自定义】
您需要登录后才可以回帖 登录 | 立即加入

本版积分规则

Archiver|小黑屋| 蓝光电影网 |网站地图

Copyright © 2021 Comsenz Inc. Powered by 蓝光电影网

蓝光电影网

本站内容由用户自主分享和转载自互联网,转载目的在于传递更多信息,并不代表本网赞同其观点和对其真实性负责。

如有侵权、违反国家法律政策行为,请联系我们,我们会第一时间及时清除和处理!

举报反馈邮箱:[email protected]

快速回复 返回顶部 返回列表