找回密码

蓝光电影网

查看: 1019|回复: 5

[2015][美国][动画][蝙蝠侠无极限:动物本能][REMUX][1080P-14.82G][MKV]DTS

[复制链接]
蓝光币
382
发表于 2015-9-12 19:55:53 | 显示全部楼层 |阅读模式

[2015][美国][动画][蝙蝠侠无极限:动物本能][REMUX][1080P-14.82G][MKV]DTS
172101d4iffyvlk4kl1l1h.jpg

◎影片根基信息
巨细: 14.82G
清楚度: 1080P
视频: MKV
导演: Butch Lukic
编剧: 希思·科森
主演: 克里斯·达玛托普拉斯 / 罗杰·克莱格·史姑娘 / 特拉维斯·威林厄姆 / Dana Snyder
范例: 行动 / 动画 / 冒险
制片国家/地域: 美国
说话: 英语
上映日期: 2015-05-12
影片:

-------------------------

  1. Video
  2. ID                                       : 1
  3. Format                                   : AVC
  4. Format/Info                              : Advanced Video Codec
  5. Format profile                           : [email protected]
  6. Format settings, CABAC                   : Yes
  7. Format settings, ReFrames                : 2 frames
  8. Codec ID                                 : V_MPEG4/ISO/AVC
  9. Duration                                 : 1h 17mn
  10. Bit rate mode                            : Variable
  11. Width                                    : 1 920 pixels
  12. Height                                   : 1 080 pixels
  13. Display aspect ratio                     : 16:9
  14. Frame rate mode                          : Constant
  15. Frame rate                               : 23.976 fps
  16. Color space                              : YUV
  17. Chroma subsampling                       : 4:2:0
  18. Bit depth                                : 8 bits
  19. Scan type                                : Progressive
  20. Title                                    : Batman.Unlimited.Animal.Instincts.2015.1080p.BluRay.REMUX.AVC.DTS-HD.MA.5.1-RARBG
  21. Language                                 : English
  22. Default                                  : No
  23. Forced                                   : No

  24. Audio #1
  25. ID                                       : 2
  26. Format                                   : DTS
  27. Format/Info                              : Digital Theater Systems
  28. Format profile                           : MA / Core
  29. Mode                                     : 16
  30. Format settings, Endianness              : Big
  31. Codec ID                                 : A_DTS
  32. Duration                                 : 1h 17mn
  33. Bit rate mode                            : Variable
  34. Bit rate                                 : Unknown / 1 509 Kbps
  35. Channel(s)                               : 6 channels
  36. Channel positions                        : Front: L C R, Side: L R, LFE
  37. Sampling rate                            : 48.0 KHz
  38. Bit depth                                : 24 bits
  39. Compression mode                         : Lossless / Lossy
  40. Title                                    : Batman.Unlimited.Animal.Instincts.2015.1080p.BluRay.REMUX.AVC.DTS-HD.MA.5.1-RARBG
  41. Language                                 : English
  42. Default                                  : Yes
  43. Forced                                   : No

  44. Audio #2
  45. ID                                       : 3
  46. Format                                   : DTS
  47. Format/Info                              : Digital Theater Systems
  48. Mode                                     : 16
  49. Format settings, Endianness              : Big
  50. Codec ID                                 : A_DTS
  51. Duration                                 : 1h 17mn
  52. Bit rate mode                            : Constant
  53. Bit rate                                 : 1 509 Kbps
  54. Channel(s)                               : 6 channels
  55. Channel positions                        : Front: L C R, Side: L R, LFE
  56. Sampling rate                            : 48.0 KHz
  57. Bit depth                                : 24 bits
  58. Compression mode                         : Lossy
  59. Stream size                              : 841 MiB (6%)
  60. Title                                    : Batman.Unlimited.Animal.Instincts.2015.1080p.BluRay.REMUX.AVC.DTS-HD.MA.5.1-RARBG
  61. Language                                 : English
  62. Default                                  : No
  63. Forced                                   : No

  64. Audio #3
  65. ID                                       : 4
  66. Format                                   : AC-3
  67. Format/Info                              : Audio Coding 3
  68. Mode extension                           : CM (complete main)
  69. Format settings, Endianness              : Big
  70. Codec ID                                 : A_AC3
  71. Duration                                 : 1h 17mn
  72. Bit rate mode                            : Constant
  73. Bit rate                                 : 640 Kbps
  74. Channel(s)                               : 6 channels
  75. Channel positions                        : Front: L C R, Side: L R, LFE
  76. Sampling rate                            : 48.0 KHz
  77. Bit depth                                : 16 bits
  78. Compression mode                         : Lossy
  79. Stream size                              : 357 MiB (2%)
  80. Title                                    : Batman.Unlimited.Animal.Instincts.2015.1080p.BluRay.REMUX.AVC.DTS-HD.MA.5.1-RARBG
  81. Language                                 : French
  82. Default                                  : No
  83. Forced                                   : No

  84. Audio #4
  85. ID                                       : 5
  86. Format                                   : AC-3
  87. Format/Info                              : Audio Coding 3
  88. Mode extension                           : CM (complete main)
  89. Format settings, Endianness              : Big
  90. Codec ID                                 : A_AC3
  91. Duration                                 : 1h 17mn
  92. Bit rate mode                            : Constant
  93. Bit rate                                 : 640 Kbps
  94. Channel(s)                               : 6 channels
  95. Channel positions                        : Front: L C R, Side: L R, LFE
  96. Sampling rate                            : 48.0 KHz
  97. Bit depth                                : 16 bits
  98. Compression mode                         : Lossy
  99. Stream size                              : 357 MiB (2%)
  100. Title                                    : Batman.Unlimited.Animal.Instincts.2015.1080p.BluRay.REMUX.AVC.DTS-HD.MA.5.1-RARBG
  101. Language                                 : Spanish
  102. Default                                  : No
  103. Forced                                   : No

  104. Audio #5
  105. ID                                       : 6
  106. Format                                   : AC-3
  107. Format/Info                              : Audio Coding 3
  108. Mode extension                           : CM (complete main)
  109. Format settings, Endianness              : Big
  110. Codec ID                                 : A_AC3
  111. Duration                                 : 1h 17mn
  112. Bit rate mode                            : Constant
  113. Bit rate                                 : 640 Kbps
  114. Channel(s)                               : 6 channels
  115. Channel positions                        : Front: L C R, Side: L R, LFE
  116. Sampling rate                            : 48.0 KHz
  117. Bit depth                                : 16 bits
  118. Compression mode                         : Lossy
  119. Stream size                              : 357 MiB (2%)
  120. Title                                    : Batman.Unlimited.Animal.Instincts.2015.1080p.BluRay.REMUX.AVC.DTS-HD.MA.5.1-RARBG
  121. Language                                 : Spanish
  122. Default                                  : No
  123. Forced                                   : No

  124. Audio #6
  125. ID                                       : 7
  126. Format                                   : AC-3
  127. Format/Info                              : Audio Coding 3
  128. Mode extension                           : CM (complete main)
  129. Format settings, Endianness              : Big
  130. Codec ID                                 : A_AC3
  131. Duration                                 : 1h 17mn
  132. Bit rate mode                            : Constant
  133. Bit rate                                 : 640 Kbps
  134. Channel(s)                               : 6 channels
  135. Channel positions                        : Front: L C R, Side: L R, LFE
  136. Sampling rate                            : 48.0 KHz
  137. Bit depth                                : 16 bits
  138. Compression mode                         : Lossy
  139. Stream size                              : 357 MiB (2%)
  140. Title                                    : Batman.Unlimited.Animal.Instincts.2015.1080p.BluRay.REMUX.AVC.DTS-HD.MA.5.1-RARBG
  141. Language                                 : German
  142. Default                                  : No
  143. Forced                                   : No

  144. Text #1
  145. ID                                       : 8
  146. Format                                   : PGS
  147. Muxing mode                              : zlib
  148. Codec ID                                 : S_HDMV/PGS
  149. Codec ID/Info                            : The same subtitle format used on BDs/HD-DVDs
  150. Language                                 : English
  151. Default                                  : No
  152. Forced                                   : No

  153. Text #2
  154. ID                                       : 9
  155. Format                                   : PGS
  156. Muxing mode                              : zlib
  157. Codec ID                                 : S_HDMV/PGS
  158. Codec ID/Info                            : The same subtitle format used on BDs/HD-DVDs
  159. Language                                 : French
  160. Default                                  : No
  161. Forced                                   : No

  162. Text #3
  163. ID                                       : 10
  164. Format                                   : PGS
  165. Muxing mode                              : zlib
  166. Codec ID                                 : S_HDMV/PGS
  167. Codec ID/Info                            : The same subtitle format used on BDs/HD-DVDs
  168. Language                                 : German
  169. Default                                  : No
  170. Forced                                   : No

  171. Text #4
  172. ID                                       : 11
  173. Format                                   : PGS
  174. Muxing mode                              : zlib
  175. Codec ID                                 : S_HDMV/PGS
  176. Codec ID/Info                            : The same subtitle format used on BDs/HD-DVDs
  177. Language                                 : Spanish
  178. Default                                  : No
  179. Forced                                   : No

  180. Text #5
  181. ID                                       : 12
  182. Format                                   : PGS
  183. Muxing mode                              : zlib
  184. Codec ID                                 : S_HDMV/PGS
  185. Codec ID/Info                            : The same subtitle format used on BDs/HD-DVDs
  186. Language                                 : Spanish
  187. Default                                  : No
  188. Forced                                   : No

  189. Menu
  190. 00:00:00.000                             : en:Chapter 01
  191. 00:10:35.801                             : en:Chapter 02
  192. 00:21:05.013                             : en:Chapter 03
  193. 00:29:05.744                             : en:Chapter 04
  194. 00:42:19.578                             : en:Chapter 05
  195. 00:50:51.673                             : en:Chapter 06
  196. 01:00:26.497                             : en:Chapter 07
  197. 01:09:28.164                             : en:Chapter 08
  198. 01:14:47.900                             : en:Chapter 09
复制代码

复制代码

-------------------------
◎出色剧照
172054m8khkhuk8f86u088.jpg
172056xykx2nykpu1k5f55.jpg
172057x6cktg66s0naak62.jpg
172059qk8o2093zsrzr99w.jpg

-------------------------
[以上高清电影剧照来自互联网,不代表此片高清剧照]
慎重声明:本站供给的一切高清电影作品均是在网上汇集,任何触及贸易盈利目标均不得利用,否则发生的一切结果将由您自己承当!本站将差池本站的任何内容负任何法令义务!该下载内容仅做宽带测试利用,请鄙人载后24小时内删除。请采办正
版!
-------------------------
◎种子下载地址
旅客,假如您要检察本帖隐藏内容请答复
回复

使用道具 举报

懒得打字嘛,点击右侧快捷回复 【右侧内容,后台自定义】
您需要登录后才可以回帖 登录 | 立即加入

本版积分规则

Archiver|小黑屋| 蓝光电影网 |网站地图

Copyright © 2021 Comsenz Inc. Powered by 蓝光电影网

蓝光电影网

本站内容由用户自主分享和转载自互联网,转载目的在于传递更多信息,并不代表本网赞同其观点和对其真实性负责。

如有侵权、违反国家法律政策行为,请联系我们,我们会第一时间及时清除和处理!

举报反馈邮箱:[email protected]

快速回复 返回顶部 返回列表