找回密码

蓝光电影网

查看: 704|回复: 2

[2014][美国][恐怖][金字塔迷踪/夺命金字塔/惊字塔][REMUX][1080P-25.62G][MKV]DTS

[复制链接]
蓝光币
382
发表于 2015-9-12 19:57:17 | 显示全部楼层 |阅读模式

[2014][美国][可骇][金字塔迷踪/夺命金字塔/惊字塔][REMUX][1080P-25.62G][MKV]DTS
231853gmskxrg9osv6hkvv.jpg

◎影片根基信息
巨细: 25.62G
清楚度: 1080P
视频: MKV
豆瓣评分: 4.8
导演: Grégory Levasseur
编剧: Daniel Meersand / Nick Simon
主演: 阿什丽·欣肖 / 丹尼斯·欧哈拉 / 詹姆斯·巴克利 / Christa Nicola / Amir K / 更多...
范例: 可骇
制片国家/地域: 美国
说话: 英语
上映日期: 2014-12-05(美国)
片长: 89分钟
别名: 金字塔迷踪 / 惊字塔(台) / Site 146
影片: The.Pyramid.2014.1080p.BluRay.REMUX.AVC.DTS-HD.MA.5.1-RARBG

◎剧情简介
       2013年,一支由梅尔·霍尔顿博士(丹尼斯·欧哈拉 Denis O'Hare 饰)及其女儿诺拉(阿什丽·欣肖 Ashley Hinshaw 饰)率领的美国考古队在开罗南部发现一座被埋葬在黄沙之下的奥秘金字塔。虽然埃及正处于暴乱紊乱当中,可是苏妮(克莉丝塔·尼古拉 Christa Nicola 饰)担任主持人的记载片摄制组仍然冒险来到当地,只为记录下具有划时代意义的重要时辰。按照现场的情况,该金字塔甚至比已发现的一切金字塔年月都要久远。按例围绕着金字塔,各类可骇诅咒的阴影盘桓其上,而且开启金字塔的时辰还有当地人因毒气而受伤。由于所照顾的装备遭到不明缘由损伤,诺拉和相关工作职员决议铤而走险进入这座未知金字塔。
  期待他们的将是永生难忘的可怕记忆……
-------------------------

  1. Video
  2. ID                                       : 1
  3. Format                                   : AVC
  4. Format/Info                              : Advanced Video Codec
  5. Format profile                           : [email protected]
  6. Format settings, CABAC                   : Yes
  7. Format settings, ReFrames                : 4 frames
  8. Codec ID                                 : V_MPEG4/ISO/AVC
  9. Duration                                 : 1h 28mn
  10. Bit rate mode                            : Variable
  11. Maximum bit rate                         : 37.0 Mbps
  12. Width                                    : 1 920 pixels
  13. Height                                   : 1 080 pixels
  14. Display aspect ratio                     : 16:9
  15. Frame rate mode                          : Constant
  16. Frame rate                               : 23.976 fps
  17. Color space                              : YUV
  18. Chroma subsampling                       : 4:2:0
  19. Bit depth                                : 8 bits
  20. Scan type                                : Progressive
  21. Title                                    : The.Pyramid.2014.1080p.BluRay.REMUX.AVC.DTS-HD.MA.5.1-RARBG
  22. Language                                 : English
  23. Default                                  : No
  24. Forced                                   : No

  25. Audio #1
  26. ID                                       : 2
  27. Format                                   : DTS
  28. Format/Info                              : Digital Theater Systems
  29. Format profile                           : MA / Core
  30. Mode                                     : 16
  31. Format settings, Endianness              : Big
  32. Codec ID                                 : A_DTS
  33. Duration                                 : 1h 28mn
  34. Bit rate mode                            : Variable
  35. Bit rate                                 : Unknown / 1 509 Kbps
  36. Channel(s)                               : 6 channels
  37. Channel positions                        : Front: L C R, Side: L R, LFE
  38. Sampling rate                            : 48.0 KHz
  39. Bit depth                                : 24 bits
  40. Compression mode                         : Lossless / Lossy
  41. Title                                    : The.Pyramid.2014.1080p.BluRay.REMUX.AVC.DTS-HD.MA.5.1-RARBG
  42. Language                                 : English
  43. Default                                  : Yes
  44. Forced                                   : No

  45. Audio #2
  46. ID                                       : 3
  47. Format                                   : DTS
  48. Format/Info                              : Digital Theater Systems
  49. Mode                                     : 16
  50. Format settings, Endianness              : Big
  51. Codec ID                                 : A_DTS
  52. Duration                                 : 1h 28mn
  53. Bit rate mode                            : Constant
  54. Bit rate                                 : 1 509 Kbps
  55. Channel(s)                               : 6 channels
  56. Channel positions                        : Front: L C R, Side: L R, LFE
  57. Sampling rate                            : 48.0 KHz
  58. Bit depth                                : 24 bits
  59. Compression mode                         : Lossy
  60. Stream size                              : 959 MiB (4%)
  61. Title                                    : The.Pyramid.2014.1080p.BluRay.REMUX.AVC.DTS-HD.MA.5.1-RARBG
  62. Language                                 : English
  63. Default                                  : No
  64. Forced                                   : No

  65. Audio #3
  66. ID                                       : 4
  67. Format                                   : AC-3
  68. Format/Info                              : Audio Coding 3
  69. Mode extension                           : CM (complete main)
  70. Format settings, Endianness              : Big
  71. Codec ID                                 : A_AC3
  72. Duration                                 : 1h 28mn
  73. Bit rate mode                            : Constant
  74. Bit rate                                 : 448 Kbps
  75. Channel(s)                               : 6 channels
  76. Channel positions                        : Front: L C R, Side: L R, LFE
  77. Sampling rate                            : 48.0 KHz
  78. Bit depth                                : 16 bits
  79. Compression mode                         : Lossy
  80. Stream size                              : 285 MiB (1%)
  81. Title                                    : The.Pyramid.2014.1080p.BluRay.REMUX.AVC.DTS-HD.MA.5.1-RARBG
  82. Language                                 : English
  83. Default                                  : No
  84. Forced                                   : No

  85. Audio #4
  86. ID                                       : 5
  87. Format                                   : AC-3
  88. Format/Info                              : Audio Coding 3
  89. Mode extension                           : CM (complete main)
  90. Format settings, Endianness              : Big
  91. Codec ID                                 : A_AC3
  92. Duration                                 : 1h 28mn
  93. Bit rate mode                            : Constant
  94. Bit rate                                 : 448 Kbps
  95. Channel(s)                               : 6 channels
  96. Channel positions                        : Front: L C R, Side: L R, LFE
  97. Sampling rate                            : 48.0 KHz
  98. Bit depth                                : 16 bits
  99. Compression mode                         : Lossy
  100. Stream size                              : 285 MiB (1%)
  101. Title                                    : The.Pyramid.2014.1080p.BluRay.REMUX.AVC.DTS-HD.MA.5.1-RARBG
  102. Language                                 : Spanish
  103. Default                                  : No
  104. Forced                                   : No

  105. Audio #5
  106. ID                                       : 6
  107. Format                                   : AC-3
  108. Format/Info                              : Audio Coding 3
  109. Mode extension                           : CM (complete main)
  110. Format settings, Endianness              : Big
  111. Codec ID                                 : A_AC3
  112. Duration                                 : 1h 28mn
  113. Bit rate mode                            : Constant
  114. Bit rate                                 : 448 Kbps
  115. Channel(s)                               : 6 channels
  116. Channel positions                        : Front: L C R, Side: L R, LFE
  117. Sampling rate                            : 48.0 KHz
  118. Bit depth                                : 16 bits
  119. Compression mode                         : Lossy
  120. Stream size                              : 285 MiB (1%)
  121. Title                                    : The.Pyramid.2014.1080p.BluRay.REMUX.AVC.DTS-HD.MA.5.1-RARBG
  122. Language                                 : French
  123. Default                                  : No
  124. Forced                                   : No
复制代码

复制代码

-------------------------
◎出色剧照
231837pvwttlbtehcweeve.jpg
231840ckhbvzpy2vbn7vr8.jpg
231842wkolq2oqcwqfqxxl.jpg

-------------------------
[以上高清电影剧照来自互联网,不代表此片高清剧照]
慎重声明:本站供给的一切高清电影作品均是在网上汇集,任何触及贸易盈利目标均不得利用,否则发生的一切结果将由您自己承当!本站将差池本站的任何内容负任何法令义务!该下载内容仅做宽带测试利用,请鄙人载后24小时内删除。请采办正
版!
-------------------------
◎种子下载地址
旅客,假如您要检察本帖隐藏内容请答复
回复

使用道具 举报

懒得打字嘛,点击右侧快捷回复 【右侧内容,后台自定义】
您需要登录后才可以回帖 登录 | 立即加入

本版积分规则

Archiver|小黑屋| 蓝光电影网 |网站地图

Copyright © 2021 Comsenz Inc. Powered by 蓝光电影网

蓝光电影网

本站内容由用户自主分享和转载自互联网,转载目的在于传递更多信息,并不代表本网赞同其观点和对其真实性负责。

如有侵权、违反国家法律政策行为,请联系我们,我们会第一时间及时清除和处理!

举报反馈邮箱:[email protected]

快速回复 返回顶部 返回列表