找回密码

蓝光电影网

查看: 744|回复: 7

[2015][美国][科幻][木升战纪/木星上行/朱比特崛起/朱庇特上升][1080P-9.5G][MKV]DTS

[复制链接]
蓝光币
382
发表于 2015-9-12 22:28:43 | 显示全部楼层 |阅读模式

[2015][美国][科幻][木升战纪/木星上行/朱比特突起/朱庇特上升][1080P-9.5G][MKV]DTS
002104itavp2phhnln7zsq.jpg

◎影片根基信息
巨细: 9.5G
清楚度: 1080P
视频: MKV
豆瓣评分: 5.5
导演: 安迪·沃卓斯基 / 拉娜·沃卓斯基
编剧: 安迪·沃卓斯基 / 拉娜·沃卓斯基
主演: 查宁·塔图姆 / 米拉·库尼斯 / 肖恩·宾 / 埃迪·雷德梅恩 / 道格拉斯·布斯 / 更多...
范例: 行动 / 科幻 / 冒险
制片国家/地域: 美国 / 英国
说话: 英语 / 俄语
上映日期: 2015-03-06(中国大陆) / 2015-01-27(圣丹斯电影节) / 2015-02-06(美国)
片长: 126分钟(中国大陆) / 127分钟(美国)
别名: 木升战纪(港) / 朱比特突起(台) / 朱庇特上升
影片: Jupiter.Ascending.2015.1080p.BluRay.x264.DTS-RARBG

◎剧情简介
       故事发生在悠远的未来,边幅平平的女孩朱庇特·琼斯(米拉·库尼斯 Mila Kunis 饰)自幼失怙,现在她以茅厕清洁工的身份在茫茫人海中奋力图生。谁知毫无征象的一天,朱庇特的命运完全改变,来自外太空的“半兽人”赏金猎人凯恩(查宁·塔图姆 Channing Tatum 饰)将其劫持,而这一切都与朱庇特与生俱来的奥秘基因有关。话说在浩大宇宙的最深处,存在着一个耸峙数千亿年的埃布拉赛克斯王朝,在前代女王归天后,顺位第一继续人的巴勒姆(埃迪·雷德梅尼 Eddie Redmayne 饰)莅祚,野心勃勃地起头了他的邪恶计划。可是朱庇特具有和前代女王最为接近的血缘,从而对巴勒姆的王位组成了威胁。
  原本负担杀掉女孩重任的凯恩,在和朱庇特奔走在炮火砍杀的进程中,心里渐渐发生了变化……
-------------------------

  1. Video
  2. ID                                       : 1
  3. Format                                   : AVC
  4. Format/Info                              : Advanced Video Codec
  5. Format profile                           : [email protected]
  6. Format settings, CABAC                   : Yes
  7. Format settings, ReFrames                : 5 frames
  8. Codec ID                                 : V_MPEG4/ISO/AVC
  9. Duration                                 : 2h 7mn
  10. Bit rate                                 : 9 170 Kbps
  11. Width                                    : 1 920 pixels
  12. Height                                   : 800 pixels
  13. Display aspect ratio                     : 2.40:1
  14. Frame rate mode                          : Constant
  15. Frame rate                               : 23.976 fps
  16. Color space                              : YUV
  17. Chroma subsampling                       : 4:2:0
  18. Bit depth                                : 8 bits
  19. Scan type                                : Progressive
  20. Bits/(Pixel*Frame)                       : 0.249
  21. Stream size                              : 7.98 GiB (84%)
  22. Title                                    : Jupiter.Ascending.2015.1080p.BluRay.x264.DTS-RARBG
  23. Writing library                          : x264 core 144 r2525 40bb568
  24. Encoding settings                        : cabac=1 / ref=5 / deblock=1:0:0 / analyse=0x3:0x133 / me=umh / subme=7 / psy=1 / psy_rd=1.00:0.00 / mixed_ref=1 / me_range=16 / chroma_me=1 / trellis=1 / 8x8dct=1 / cqm=0 / deadzone=21,11 / fast_pskip=0 / chroma_qp_offset=-2 / threads=60 / lookahead_threads=6 / sliced_threads=0 / nr=0 / decimate=1 / interlaced=0 / bluray_compat=0 / constrained_intra=0 / bframes=3 / b_pyramid=2 / b_adapt=1 / b_bias=0 / direct=1 / weightb=1 / open_gop=0 / weightp=2 / keyint=250 / keyint_min=23 / scenecut=40 / intra_refresh=0 / rc_lookahead=40 / rc=2pass / mbtree=1 / bitrate=9170 / ratetol=1.0 / qcomp=0.60 / qpmin=0 / qpmax=69 / qpstep=4 / cplxblur=20.0 / qblur=0.5 / ip_ratio=1.40 / aq=1:1.00
  25. Language                                 : English
  26. Default                                  : Yes
  27. Forced                                   : No

  28. Audio
  29. ID                                       : 2
  30. Format                                   : DTS
  31. Format/Info                              : Digital Theater Systems
  32. Mode                                     : 16
  33. Format settings, Endianness              : Big
  34. Codec ID                                 : A_DTS
  35. Duration                                 : 2h 7mn
  36. Bit rate mode                            : Constant
  37. Bit rate                                 : 1 510 Kbps
  38. Channel(s)                               : 6 channels
  39. Channel positions                        : Front: L C R, Side: L R, LFE
  40. Sampling rate                            : 48.0 KHz
  41. Bit depth                                : 24 bits
  42. Compression mode                         : Lossy
  43. Stream size                              : 1.35 GiB (14%)
  44. Title                                    : Jupiter.Ascending.2015.1080p.BluRay.x264.DTS-RARBG
  45. Language                                 : English
  46. Default                                  : Yes
  47. Forced                                   : No

  48. Menu
  49. 00:00:00.000                             : en:00:00:00.000
  50. 00:08:45.024                             : en:00:08:45.024
  51. 00:19:31.170                             : en:00:19:31.170
  52. 00:31:32.974                             : en:00:31:32.974
  53. 00:41:42.542                             : en:00:41:42.542
  54. 00:49:35.639                             : en:00:49:35.639
  55. 00:58:29.631                             : en:00:58:29.631
  56. 01:09:20.031                             : en:01:09:20.031
  57. 01:19:07.201                             : en:01:19:07.201
  58. 01:29:09.427                             : en:01:29:09.427
  59. 01:36:08.513                             : en:01:36:08.513
  60. 01:43:26.575                             : en:01:43:26.575
  61. 01:52:58.772                             : en:01:52:58.772
  62. 01:57:59.489                             : en:01:57:59.489
复制代码

复制代码

-------------------------
◎出色剧照
002135rkeqmg3gpkwtdqqy.jpg
002136jni0pjz0ps5bbjne.jpg
002140x4wkytblqvjv37kz.jpg

-------------------------
[以上高清电影剧照来自互联网,不代表此片高清剧照]
慎重声明:本站供给的一切高清电影作品均是在网上汇集,任何触及贸易盈利目标均不得利用,否则发生的一切结果将由您自己承当!本站将差池本站的任何内容负任何法令义务!该下载内容仅做宽带测试利用,请鄙人载后24小时内删除。请采办正
版!
-------------------------
◎种子下载地址
旅客,假如您要检察本帖隐藏内容请答复
回复

使用道具 举报

蓝光币
565
发表于 2020-6-10 10:46:08 | 显示全部楼层
感谢楼主分享
回复 支持 反对

使用道具 举报

懒得打字嘛,点击右侧快捷回复 【右侧内容,后台自定义】
您需要登录后才可以回帖 登录 | 立即加入

本版积分规则

Archiver|小黑屋| 蓝光电影网 |网站地图

Copyright © 2021 Comsenz Inc. Powered by 蓝光电影网

蓝光电影网

本站内容由用户自主分享和转载自互联网,转载目的在于传递更多信息,并不代表本网赞同其观点和对其真实性负责。

如有侵权、违反国家法律政策行为,请联系我们,我们会第一时间及时清除和处理!

举报反馈邮箱:[email protected]

快速回复 返回顶部 返回列表