找回密码

蓝光电影网

查看: 581|回复: 2

[2015][美国][剧情][辛白林/混乱][REMUX][1080P-15.81G][MKV]DTS

[复制链接]
蓝光币
386
发表于 2015-9-12 22:43:15 | 显示全部楼层 |阅读模式

[2015][美国][剧情][辛白林/紊乱][REMUX][1080P-15.81G][MKV]DTS
190319p1flwml4uukyxymc.jpg

◎影片根基信息
巨细: 15.81G
清楚度: 1080P
视频: MKV
豆瓣评分: 5.0
导演: 米歇尔·阿米瑞亚德
编剧: 米歇尔·阿米瑞亚德 / 莎士比亚
主演: 伊桑·霍克 / 艾德·哈里斯 / 米拉·乔沃维奇 / 约翰·雷吉扎莫 / 佩恩·拜德格雷 / 更多...
范例: 剧情
制片国家/地域: 美国
说话: 英语
上映日期: 2014-09-03(威尼斯电影节) / 2015-03-13(美国)
片长: 97分钟
别名: 紊乱 / Anarchy
影片: Cymbeline.2014.1080p.BluRay.REMUX.AVC.DTS-HD.MA.5.1-RARBG

◎剧情简介
       导演将莎士比亚的这出古典戏剧搬到了现代,故事围绕着败北的差人和专门触及**买卖的帮派展开,试图揭穿现今美国社会中败北且阴晦的一面。影片中的辛白林不再是国家的君主,而是一个具有超大势力的帮气派目。“一个庞大的犯罪帝国,因贪心而变得支离破裂。一对情人的生命由于变节备受熬煎,却因复仇而重新连系。”
-------------------------

  1. Video
  2. ID                                       : 1
  3. Format                                   : AVC
  4. Format/Info                              : Advanced Video Codec
  5. Format profile                           : [email protected]
  6. Format settings, CABAC                   : Yes
  7. Format settings, ReFrames                : 4 frames
  8. Codec ID                                 : V_MPEG4/ISO/AVC
  9. Duration                                 : 1h 38mn
  10. Bit rate mode                            : Variable
  11. Maximum bit rate                         : 37.0 Mbps
  12. Width                                    : 1 920 pixels
  13. Height                                   : 1 080 pixels
  14. Display aspect ratio                     : 16:9
  15. Frame rate mode                          : Constant
  16. Frame rate                               : 23.976 fps
  17. Color space                              : YUV
  18. Chroma subsampling                       : 4:2:0
  19. Bit depth                                : 8 bits
  20. Scan type                                : Progressive
  21. Title                                    : Cymbeline.2014.1080p.BluRay.REMUX.AVC.DTS-HD.MA.5.1-RARBG
  22. Language                                 : English
  23. Default                                  : No
  24. Forced                                   : No

  25. Audio #1
  26. ID                                       : 2
  27. Format                                   : DTS
  28. Format/Info                              : Digital Theater Systems
  29. Format profile                           : MA / Core
  30. Mode                                     : 16
  31. Format settings, Endianness              : Big
  32. Codec ID                                 : A_DTS
  33. Duration                                 : 1h 38mn
  34. Bit rate mode                            : Variable
  35. Bit rate                                 : Unknown / 1 509 Kbps
  36. Channel(s)                               : 6 channels
  37. Channel positions                        : Front: L C R, Side: L R, LFE
  38. Sampling rate                            : 48.0 KHz
  39. Bit depth                                : 24 bits
  40. Compression mode                         : Lossless / Lossy
  41. Title                                    : Cymbeline.2014.1080p.BluRay.REMUX.AVC.DTS-HD.MA.5.1-RARBG
  42. Language                                 : English
  43. Default                                  : Yes
  44. Forced                                   : No

  45. Audio #2
  46. ID                                       : 3
  47. Format                                   : DTS
  48. Format/Info                              : Digital Theater Systems
  49. Mode                                     : 16
  50. Format settings, Endianness              : Big
  51. Codec ID                                 : A_DTS
  52. Duration                                 : 1h 38mn
  53. Bit rate mode                            : Constant
  54. Bit rate                                 : 1 509 Kbps
  55. Channel(s)                               : 6 channels
  56. Channel positions                        : Front: L C R, Side: L R, LFE
  57. Sampling rate                            : 48.0 KHz
  58. Bit depth                                : 24 bits
  59. Compression mode                         : Lossy
  60. Stream size                              : 1.04 GiB (7%)
  61. Title                                    : Cymbeline.2014.1080p.BluRay.REMUX.AVC.DTS-HD.MA.5.1-RARBG
  62. Language                                 : English
  63. Default                                  : No
  64. Forced                                   : No

  65. Audio #3
  66. ID                                       : 4
  67. Format                                   : AC-3
  68. Format/Info                              : Audio Coding 3
  69. Mode extension                           : CM (complete main)
  70. Format settings, Endianness              : Big
  71. Codec ID                                 : A_AC3
  72. Duration                                 : 1h 38mn
  73. Bit rate mode                            : Constant
  74. Bit rate                                 : 192 Kbps
  75. Channel(s)                               : 2 channels
  76. Channel positions                        : Front: L R
  77. Sampling rate                            : 48.0 KHz
  78. Bit depth                                : 16 bits
  79. Compression mode                         : Lossy
  80. Stream size                              : 135 MiB (1%)
  81. Title                                    : Cymbeline.2014.1080p.BluRay.REMUX.AVC.DTS-HD.MA.5.1-RARBG
  82. Language                                 : English
  83. Default                                  : No
  84. Forced                                   : No

  85. Text #1
  86. ID                                       : 5
  87. Format                                   : PGS
  88. Muxing mode                              : zlib
  89. Codec ID                                 : S_HDMV/PGS
  90. Codec ID/Info                            : The same subtitle format used on BDs/HD-DVDs
  91. Language                                 : English
  92. Default                                  : No
  93. Forced                                   : No

  94. Text #2
  95. ID                                       : 6
  96. Format                                   : PGS
  97. Muxing mode                              : zlib
  98. Codec ID                                 : S_HDMV/PGS
  99. Codec ID/Info                            : The same subtitle format used on BDs/HD-DVDs
  100. Language                                 : English
  101. Default                                  : No
  102. Forced                                   : No

  103. Text #3
  104. ID                                       : 7
  105. Format                                   : PGS
  106. Muxing mode                              : zlib
  107. Codec ID                                 : S_HDMV/PGS
  108. Codec ID/Info                            : The same subtitle format used on BDs/HD-DVDs
  109. Language                                 : Spanish
  110. Default                                  : No
  111. Forced                                   : No

  112. Menu
  113. 00:00:00.000                             : en:Chapter 01
  114. 00:06:57.792                             : en:Chapter 02
  115. 00:10:59.450                             : en:Chapter 03
  116. 00:17:17.828                             : en:Chapter 04
  117. 00:27:57.384                             : en:Chapter 05
  118. 00:30:47.971                             : en:Chapter 06
  119. 00:35:09.649                             : en:Chapter 07
  120. 00:41:30.654                             : en:Chapter 08
  121. 00:49:24.086                             : en:Chapter 09
  122. 00:54:31.142                             : en:Chapter 10
  123. 01:02:51.434                             : en:Chapter 11
  124. 01:07:28.002                             : en:Chapter 12
  125. 01:14:28.797                             : en:Chapter 13
  126. 01:21:20.000                             : en:Chapter 14
  127. 01:25:39.008                             : en:Chapter 15
  128. 01:32:20.785                             : en:Chapter 16
复制代码

复制代码

-------------------------
◎出色剧照
190315oz1pgz3y4kwkk0wh.jpg
190316oy4jnjhdw9jhhuax.jpg
190317lz3v4osi6id3dfqw.jpg
190318rko5zwls727oekz4.jpg

-------------------------
[以上高清电影剧照来自互联网,不代表此片高清剧照]
慎重声明:本站供给的一切高清电影作品均是在网上汇集,任何触及贸易盈利目标均不得利用,否则发生的一切结果将由您自己承当!本站将差池本站的任何内容负任何法令义务!该下载内容仅做宽带测试利用,请鄙人载后24小时内删除。请采办正
版!
-------------------------
◎种子下载地址
旅客,假如您要检察本帖隐藏内容请答复
回复

使用道具 举报

懒得打字嘛,点击右侧快捷回复 【右侧内容,后台自定义】
您需要登录后才可以回帖 登录 | 立即加入

本版积分规则

Archiver|小黑屋| 蓝光电影网 |网站地图

Copyright © 2021 Comsenz Inc. Powered by 蓝光电影网

蓝光电影网

本站内容由用户自主分享和转载自互联网,转载目的在于传递更多信息,并不代表本网赞同其观点和对其真实性负责。

如有侵权、违反国家法律政策行为,请联系我们,我们会第一时间及时清除和处理!

举报反馈邮箱:[email protected]

快速回复 返回顶部 返回列表