找回密码

蓝光电影网

查看: 4863|回复: 3

无敌浩克/神奇绿巨人 The.Incredible.Hulk.2008.2160p.BluRay.REMUX.HEVC.DTS-X.7.1-FGT 53.14GB

[复制链接]
蓝光币
623
发表于 2018-4-6 20:19:16 | 显示全部楼层 |阅读模式
001128butbbasxrcai3art.jpg
◎译  名 无敌浩克/奇异绿伟人/绿伟人2/不成思议的绿伟人/新变形侠医
◎片  名 The Incredible Hulk
◎年  代 2008
◎产  地 美国
◎类  别 行动/科幻/惊悚
◎语  言 英语/葡萄牙语/西班牙语
◎上映日期 2008-06-13(美国)/2008-08-20(中国大陆)
◎IMDb评分  6.8/10 from 362,998 users
◎IMDb链接  http://www.imdb.com/title/tt0800080/
◎豆瓣评分 6.8/10 from 84,317 users
◎豆瓣链接 https://movie.douban.com/subject/1866475/
◎片  长 112 分钟
◎导  演 路易斯·莱特里尔 Louis Leterrier
◎主  演 爱德华·诺顿 Edward Norton
      丽芙·泰勒 Liv Tyler
      蒂姆·罗斯 Tim Roth
      威廉·赫特 William Hurt
      蒂姆·布雷克·尼尔森 Tim Blake Nelson

◎简  介

  在高华大学变异的履历总在重演,关于军方通缉的亦围绕在脑海,科学家Bruce Banner(爱德华·诺顿 Edward Norton 饰)就在这样的梦魇下在巴西一边控制着体内的伽马辐射带来的异常,一边尽力和纽约的蓝师长追求处理法子。
  在汽水生产厂房的他一日不谨慎割伤手指,让血滴入了汽水瓶,远销到美国的这瓶汽水表露了他的行迹。美国军方穷尽才能追捕他,还找来求胜心切的英国轰隆将军Emil Blonsky(蒂姆·罗斯 Tim Roth 饰)。被逼到死路的Bruce变身为绿伟人,Emil和其他甲士都大吃一惊。为了亲手擒住Bruce,Emil倡议给自己注入可使基因变异的样本。
  Bruce在美国藏匿时碰到旧女友Betty Ross(丽芙·泰勒 Liv Tyler 饰),Betty义无返顾地站在他一边,同时发现,她具有令他体内绿伟人平稳的气力。
  何处Emil已经被求胜蒙蔽了眼睛,他的挑衅加上美国军方极端想操纵Bruce体内异能作为残暴行动的决心,一场大战已经避无可避。


  1. Video
  2. ID                                       : 1
  3. Format                                   : HEVC
  4. Format/Info                              : High Efficiency Video Coding
  5. Format profile                           : Main [email][email protected][/email]@High
  6. Codec ID                                 : V_MPEGH/ISO/HEVC
  7. Duration                                 : 1 h 52 min
  8. Bit rate                                 : 57.5 Mb/s
  9. Width                                    : 3 840 pixels
  10. Height                                   : 2 160 pixels
  11. Display aspect ratio                     : 16:9
  12. Frame rate mode                          : Constant
  13. Frame rate                               : 23.976 (24000/1001) FPS
  14. Color space                              : YUV
  15. Chroma subsampling                       : 4:2:0 (Type 2)
  16. Bit depth                                : 10 bits
  17. Bits/(Pixel*Frame)                       : 0.289
  18. Stream size                              : 45.0GB (85%)
  19. Title                                    : The.Incredible.Hulk.2008.2160p.BluRay.REMUX.HEVC.DTS-X.7.1-FGT
  20. Default                                  : Yes
  21. Forced                                   : No
  22. Color range                              : Limited
  23. Color primaries                          : BT.2020
  24. Transfer characteristics                 : PQ
  25. Matrix coefficients                      : BT.2020 non-constant
  26. Mastering display color primaries        : Display P3
  27. Mastering display luminance              : min: 0.0050 cd/m2, max: 1000 cd/m2
  28. Maximum Content Light Level              : 915 cd/m2
  29. Maximum Frame-Average Light Level        : 258 cd/m2

  30. Audio #1
  31. ID                                       : 2
  32. Format                                   : DTS
  33. Format/Info                              : Digital Theater Systems
  34. Format profile                           : X / MA / Core
  35. Codec ID                                 : A_DTS
  36. Duration                                 : 1 h 52 min
  37. Bit rate mode                            : Variable / Variable / Constant
  38. Bit rate                                 : 6 787 kb/s / 6 787 kb/s / 1 509 kb/s
  39. Channel(s)                               : Object Based / 8 channels / 6 channels
  40. Channel positions                        : Object Based / Front: L C R, Side: L R, Back: L R, LFE / Front: L C R, Side: L R, LFE
  41. Sampling rate                            :  / 48.0 kHz / 48.0 kHz
  42. Frame rate                               : 93.750 FPS (512 SPF)
  43. Bit depth                                :  / 24 bits / 24 bits
  44. Compression mode                         :  / Lossless / Lossy
  45. Stream size                              : 5.32GB (10%)
  46. Title                                    : The.Incredible.Hulk.2008.2160p.BluRay.REMUX.HEVC.DTS-X.7.1-FGT
  47. Language                                 : English
  48. Default                                  : Yes
  49. Forced                                   : No

  50. Audio #2
  51. ID                                       : 3
  52. Format                                   : DTS
  53. Format/Info                              : Digital Theater Systems
  54. Codec ID                                 : A_DTS
  55. Duration                                 : 1 h 52 min
  56. Bit rate mode                            : Constant
  57. Bit rate                                 : 768 kb/s
  58. Channel(s)                               : 6 channels
  59. Channel positions                        : Front: L C R, Side: L R, LFE
  60. Sampling rate                            : 48.0 kHz
  61. Frame rate                               : 93.750 FPS (512 SPF)
  62. Bit depth                                : 24 bits
  63. Compression mode                         : Lossy
  64. Stream size                              : 616 MiB (1%)
  65. Title                                    : The.Incredible.Hulk.2008.2160p.BluRay.REMUX.HEVC.DTS-X.7.1-FGT
  66. Language                                 : Italian
  67. Default                                  : No
  68. Forced                                   : No

  69. Audio #3
  70. ID                                       : 4
  71. Format                                   : DTS
  72. Format/Info                              : Digital Theater Systems
  73. Codec ID                                 : A_DTS
  74. Duration                                 : 1 h 52 min
  75. Bit rate mode                            : Constant
  76. Bit rate                                 : 768 kb/s
  77. Channel(s)                               : 6 channels
  78. Channel positions                        : Front: L C R, Side: L R, LFE
  79. Sampling rate                            : 48.0 kHz
  80. Frame rate                               : 93.750 FPS (512 SPF)
  81. Bit depth                                : 24 bits
  82. Compression mode                         : Lossy
  83. Stream size                              : 616 MiB (1%)
  84. Title                                    : The.Incredible.Hulk.2008.2160p.BluRay.REMUX.HEVC.DTS-X.7.1-FGT
  85. Language                                 : Russian
  86. Default                                  : No
  87. Forced                                   : No

  88. Audio #4
  89. ID                                       : 5
  90. Format                                   : DTS
  91. Format/Info                              : Digital Theater Systems
  92. Codec ID                                 : A_DTS
  93. Duration                                 : 1 h 52 min
  94. Bit rate mode                            : Constant
  95. Bit rate                                 : 768 kb/s
  96. Channel(s)                               : 6 channels
  97. Channel positions                        : Front: L C R, Side: L R, LFE
  98. Sampling rate                            : 48.0 kHz
  99. Frame rate                               : 93.750 FPS (512 SPF)
  100. Bit depth                                : 24 bits
  101. Compression mode                         : Lossy
  102. Stream size                              : 616 MiB (1%)
  103. Title                                    : The.Incredible.Hulk.2008.2160p.BluRay.REMUX.HEVC.DTS-X.7.1-FGT
  104. Language                                 : Czech
  105. Default                                  : No
  106. Forced                                   : No

  107. Audio #5
  108. ID                                       : 6
  109. Format                                   : DTS
  110. Format/Info                              : Digital Theater Systems
  111. Codec ID                                 : A_DTS
  112. Duration                                 : 1 h 52 min
  113. Bit rate mode                            : Constant
  114. Bit rate                                 : 768 kb/s
  115. Channel(s)                               : 6 channels
  116. Channel positions                        : Front: L C R, Side: L R, LFE
  117. Sampling rate                            : 48.0 kHz
  118. Frame rate                               : 93.750 FPS (512 SPF)
  119. Bit depth                                : 24 bits
  120. Compression mode                         : Lossy
  121. Stream size                              : 616 MiB (1%)
  122. Title                                    : The.Incredible.Hulk.2008.2160p.BluRay.REMUX.HEVC.DTS-X.7.1-FGT
  123. Language                                 : Polish
  124. Default                                  : No
  125. Forced                                   : No

  126. Audio #6
  127. ID                                       : 7
  128. Format                                   : AC-3
  129. Format/Info                              : Audio Coding 3
  130. Codec ID                                 : A_AC3
  131. Duration                                 : 1 h 52 min
  132. Bit rate mode                            : Constant
  133. Bit rate                                 : 192 kb/s
  134. Channel(s)                               : 2 channels
  135. Channel positions                        : Front: L R
  136. Sampling rate                            : 48.0 kHz
  137. Frame rate                               : 31.250 FPS (1536 SPF)
  138. Bit depth                                : 16 bits
  139. Compression mode                         : Lossy
  140. Stream size                              : 154 MiB (0%)
  141. Title                                    : The.Incredible.Hulk.2008.2160p.BluRay.REMUX.HEVC.DTS-X.7.1-FGT
  142. Language                                 : English
  143. Service kind                             : Complete Main
  144. Default                                  : No
  145. Forced                                   : No

  146. Text #1
  147. ID                                       : 8
  148. Format                                   : PGS
  149. Muxing mode                              : zlib
  150. Codec ID                                 : S_HDMV/PGS
  151. Codec ID/Info                            : Picture based subtitle format used on BDs/HD-DVDs
  152. Duration                                 : 1 h 44 min
  153. Bit rate                                 : 22.7 kb/s
  154. Count of elements                        : 1763
  155. Stream size                              : 16.9 MiB (0%)
  156. Title                                    : English-PGS
  157. Language                                 : English
  158. Default                                  : Yes
  159. Forced                                   : No

  160. Text #2
  161. ID                                       : 9
  162. Format                                   : PGS
  163. Muxing mode                              : zlib
  164. Codec ID                                 : S_HDMV/PGS
  165. Codec ID/Info                            : Picture based subtitle format used on BDs/HD-DVDs
  166. Duration                                 : 1 h 50 min
  167. Bit rate                                 : 19.3 kb/s
  168. Count of elements                        : 1580
  169. Stream size                              : 15.2 MiB (0%)
  170. Title                                    : Italian-PGS
  171. Language                                 : Italian
  172. Default                                  : No
  173. Forced                                   : No

  174. Text #3
  175. ID                                       : 10
  176. Format                                   : PGS
  177. Muxing mode                              : zlib
  178. Codec ID                                 : S_HDMV/PGS
  179. Codec ID/Info                            : Picture based subtitle format used on BDs/HD-DVDs
  180. Duration                                 : 1 h 50 min
  181. Bit rate                                 : 12.8 kb/s
  182. Count of elements                        : 1282
  183. Stream size                              : 10.1 MiB (0%)
  184. Title                                    : Dutch-PGS
  185. Language                                 : Dutch
  186. Default                                  : No
  187. Forced                                   : No

  188. Text #4
  189. ID                                       : 11
  190. Format                                   : PGS
  191. Muxing mode                              : zlib
  192. Codec ID                                 : S_HDMV/PGS
  193. Codec ID/Info                            : Picture based subtitle format used on BDs/HD-DVDs
  194. Duration                                 : 1 h 50 min
  195. Bit rate                                 : 15.7 kb/s
  196. Count of elements                        : 1383
  197. Stream size                              : 12.4 MiB (0%)
  198. Title                                    : Danish-PGS
  199. Language                                 : Danish
  200. Default                                  : No
  201. Forced                                   : No

  202. Text #5
  203. ID                                       : 12
  204. Format                                   : PGS
  205. Muxing mode                              : zlib
  206. Codec ID                                 : S_HDMV/PGS
  207. Codec ID/Info                            : Picture based subtitle format used on BDs/HD-DVDs
  208. Duration                                 : 1 h 50 min
  209. Bit rate                                 : 14.1 kb/s
  210. Count of elements                        : 1356
  211. Stream size                              : 11.2 MiB (0%)
  212. Title                                    : Finnish-PGS
  213. Language                                 : Finnish
  214. Default                                  : No
  215. Forced                                   : No

  216. Text #6
  217. ID                                       : 13
  218. Format                                   : PGS
  219. Muxing mode                              : zlib
  220. Codec ID                                 : S_HDMV/PGS
  221. Codec ID/Info                            : Picture based subtitle format used on BDs/HD-DVDs
  222. Duration                                 : 1 h 50 min
  223. Bit rate                                 : 18.8 kb/s
  224. Count of elements                        : 1578
  225. Stream size                              : 14.8 MiB (0%)
  226. Title                                    : Norwegian-PGS
  227. Language                                 : Norwegian
  228. Default                                  : No
  229. Forced                                   : No

  230. Text #7
  231. ID                                       : 14
  232. Format                                   : PGS
  233. Muxing mode                              : zlib
  234. Codec ID                                 : S_HDMV/PGS
  235. Codec ID/Info                            : Picture based subtitle format used on BDs/HD-DVDs
  236. Duration                                 : 1 h 50 min
  237. Bit rate                                 : 16.0 kb/s
  238. Count of elements                        : 1458
  239. Stream size                              : 12.6 MiB (0%)
  240. Title                                    : Swedish-PGS
  241. Language                                 : Swedish
  242. Default                                  : No
  243. Forced                                   : No

  244. Text #8
  245. ID                                       : 15
  246. Format                                   : PGS
  247. Muxing mode                              : zlib
  248. Codec ID                                 : S_HDMV/PGS
  249. Codec ID/Info                            : Picture based subtitle format used on BDs/HD-DVDs
  250. Duration                                 : 1 h 44 min
  251. Bit rate                                 : 17.5 kb/s
  252. Count of elements                        : 1402
  253. Stream size                              : 13.1 MiB (0%)
  254. Title                                    : Portuguese-PGS
  255. Language                                 : Portuguese
  256. Default                                  : No
  257. Forced                                   : No

  258. Text #9
  259. ID                                       : 16
  260. Format                                   : PGS
  261. Muxing mode                              : zlib
  262. Codec ID                                 : S_HDMV/PGS
  263. Codec ID/Info                            : Picture based subtitle format used on BDs/HD-DVDs
  264. Duration                                 : 1 h 50 min
  265. Bit rate                                 : 19.8 kb/s
  266. Count of elements                        : 1588
  267. Stream size                              : 15.6 MiB (0%)
  268. Title                                    : Turkish-PGS
  269. Language                                 : Turkish
  270. Default                                  : No
  271. Forced                                   : No

  272. Text #10
  273. ID                                       : 17
  274. Format                                   : PGS
  275. Muxing mode                              : zlib
  276. Codec ID                                 : S_HDMV/PGS
  277. Codec ID/Info                            : Picture based subtitle format used on BDs/HD-DVDs
  278. Duration                                 : 1 h 50 min
  279. Bit rate                                 : 17.4 kb/s
  280. Count of elements                        : 1586
  281. Stream size                              : 13.7 MiB (0%)
  282. Title                                    : Czech-PGS
  283. Language                                 : Czech
  284. Default                                  : No
  285. Forced                                   : No

  286. Text #11
  287. ID                                       : 18
  288. Format                                   : PGS
  289. Muxing mode                              : zlib
  290. Codec ID                                 : S_HDMV/PGS
  291. Codec ID/Info                            : Picture based subtitle format used on BDs/HD-DVDs
  292. Duration                                 : 1 h 50 min
  293. Bit rate                                 : 13.3 kb/s
  294. Count of elements                        : 1519
  295. Stream size                              : 10.6 MiB (0%)
  296. Title                                    : Chinese-PGS
  297. Language                                 : Chinese
  298. Default                                  : No
  299. Forced                                   : No

  300. Text #12
  301. ID                                       : 19
  302. Format                                   : PGS
  303. Muxing mode                              : zlib
  304. Codec ID                                 : S_HDMV/PGS
  305. Codec ID/Info                            : Picture based subtitle format used on BDs/HD-DVDs
  306. Duration                                 : 1 h 51 min
  307. Bit rate                                 : 13.4 kb/s
  308. Count of elements                        : 1594
  309. Stream size                              : 10.7 MiB (0%)
  310. Title                                    : Korean-PGS
  311. Language                                 : Korean
  312. Default                                  : No
  313. Forced                                   : No

  314. Text #13
  315. ID                                       : 20
  316. Format                                   : PGS
  317. Muxing mode                              : zlib
  318. Codec ID                                 : S_HDMV/PGS
  319. Codec ID/Info                            : Picture based subtitle format used on BDs/HD-DVDs
  320. Duration                                 : 1 h 50 min
  321. Bit rate                                 : 19.1 kb/s
  322. Count of elements                        : 1456
  323. Stream size                              : 15.2 MiB (0%)
  324. Title                                    : Greek-PGS
  325. Language                                 : Greek
  326. Default                                  : No
  327. Forced                                   : No

  328. Text #14
  329. ID                                       : 21
  330. Format                                   : PGS
  331. Muxing mode                              : zlib
  332. Codec ID                                 : S_HDMV/PGS
  333. Codec ID/Info                            : Picture based subtitle format used on BDs/HD-DVDs
  334. Duration                                 : 1 h 51 min
  335. Bit rate                                 : 82.1 kb/s
  336. Count of elements                        : 4213
  337. Stream size                              : 65.4 MiB (0%)
  338. Title                                    : English-COMMENTARY-PGS
  339. Language                                 : English
  340. Default                                  : No
  341. Forced                                   : No

  342. Text #15
  343. ID                                       : 22
  344. Format                                   : PGS
  345. Muxing mode                              : zlib
  346. Codec ID                                 : S_HDMV/PGS
  347. Codec ID/Info                            : Picture based subtitle format used on BDs/HD-DVDs
  348. Duration                                 : 1 h 51 min
  349. Bit rate                                 : 65.3 kb/s
  350. Count of elements                        : 4213
  351. Stream size                              : 52.1 MiB (0%)
  352. Title                                    : Italian-COMMENTARY-PGS
  353. Language                                 : Italian
  354. Default                                  : No
  355. Forced                                   : No

  356. Text #16
  357. ID                                       : 23
  358. Format                                   : PGS
  359. Muxing mode                              : zlib
  360. Codec ID                                 : S_HDMV/PGS
  361. Codec ID/Info                            : Picture based subtitle format used on BDs/HD-DVDs
  362. Duration                                 : 1 h 51 min
  363. Bit rate                                 : 69.9 kb/s
  364. Count of elements                        : 4205
  365. Stream size                              : 55.9 MiB (0%)
  366. Title                                    : Dutch-COMMENTARY-PGS
  367. Language                                 : Dutch
  368. Default                                  : No
  369. Forced                                   : No

  370. Text #17
  371. ID                                       : 24
  372. Format                                   : PGS
  373. Muxing mode                              : zlib
  374. Codec ID                                 : S_HDMV/PGS
  375. Codec ID/Info                            : Picture based subtitle format used on BDs/HD-DVDs
  376. Duration                                 : 1 h 51 min
  377. Bit rate                                 : 69.3 kb/s
  378. Count of elements                        : 4211
  379. Stream size                              : 55.3 MiB (0%)
  380. Title                                    : Danish-COMMENTARY-PGS
  381. Language                                 : Danish
  382. Default                                  : No
  383. Forced                                   : No

  384. Text #18
  385. ID                                       : 25
  386. Format                                   : PGS
  387. Muxing mode                              : zlib
  388. Codec ID                                 : S_HDMV/PGS
  389. Codec ID/Info                            : Picture based subtitle format used on BDs/HD-DVDs
  390. Duration                                 : 1 h 51 min
  391. Bit rate                                 : 65.7 kb/s
  392. Count of elements                        : 4209
  393. Stream size                              : 52.5 MiB (0%)
  394. Title                                    : Finnish-COMMENTARY-PGS
  395. Language                                 : Finnish
  396. Default                                  : No
  397. Forced                                   : No

  398. Text #19
  399. ID                                       : 26
  400. Format                                   : PGS
  401. Muxing mode                              : zlib
  402. Codec ID                                 : S_HDMV/PGS
  403. Codec ID/Info                            : Picture based subtitle format used on BDs/HD-DVDs
  404. Duration                                 : 1 h 51 min
  405. Bit rate                                 : 64.3 kb/s
  406. Count of elements                        : 4213
  407. Stream size                              : 51.4 MiB (0%)
  408. Title                                    : Norwegian-COMMENTARY-PGS
  409. Language                                 : Norwegian
  410. Default                                  : No
  411. Forced                                   : No

  412. Text #20
  413. ID                                       : 27
  414. Format                                   : PGS
  415. Muxing mode                              : zlib
  416. Codec ID                                 : S_HDMV/PGS
  417. Codec ID/Info                            : Picture based subtitle format used on BDs/HD-DVDs
  418. Duration                                 : 1 h 51 min
  419. Bit rate                                 : 65.7 kb/s
  420. Count of elements                        : 4213
  421. Stream size                              : 52.5 MiB (0%)
  422. Title                                    : Swedish-COMMENTARY-PGS
  423. Language                                 : Swedish
  424. Default                                  : No
  425. Forced                                   : No

  426. Text #21
  427. ID                                       : 28
  428. Format                                   : PGS
  429. Muxing mode                              : zlib
  430. Codec ID                                 : S_HDMV/PGS
  431. Codec ID/Info                            : Picture based subtitle format used on BDs/HD-DVDs
  432. Duration                                 : 1 h 51 min
  433. Bit rate                                 : 69.9 kb/s
  434. Count of elements                        : 4209
  435. Stream size                              : 55.9 MiB (0%)
  436. Title                                    : Portuguese-COMMENTARY-PGS
  437. Language                                 : Portuguese
  438. Default                                  : No
  439. Forced                                   : No

  440. Text #22
  441. ID                                       : 29
  442. Format                                   : PGS
  443. Muxing mode                              : zlib
  444. Codec ID                                 : S_HDMV/PGS
  445. Codec ID/Info                            : Picture based subtitle format used on BDs/HD-DVDs
  446. Duration                                 : 1 h 51 min
  447. Bit rate                                 : 49.2 kb/s
  448. Count of elements                        : 4213
  449. Stream size                              : 39.3 MiB (0%)
  450. Title                                    : Korean-COMMENTARY-PGS
  451. Language                                 : Korean
  452. Default                                  : No
  453. Forced                                   : No

  454. Text #23
  455. ID                                       : 30
  456. Format                                   : PGS
  457. Muxing mode                              : zlib
  458. Codec ID                                 : S_HDMV/PGS
  459. Codec ID/Info                            : Picture based subtitle format used on BDs/HD-DVDs
  460. Duration                                 : 1 h 50 min
  461. Bit rate                                 : 2 008 b/s
  462. Count of elements                        : 178
  463. Stream size                              : 1.58 MiB (0%)
  464. Title                                    : Italian-FORCED-PGS
  465. Language                                 : Italian
  466. Default                                  : No
  467. Forced                                   : No

  468. Text #24
  469. ID                                       : 31
  470. Format                                   : PGS
  471. Muxing mode                              : zlib
  472. Codec ID                                 : S_HDMV/PGS
  473. Codec ID/Info                            : Picture based subtitle format used on BDs/HD-DVDs
  474. Duration                                 : 1 h 50 min
  475. Bit rate                                 : 2 899 b/s
  476. Count of elements                        : 244
  477. Stream size                              : 2.29 MiB (0%)
  478. Title                                    : Russian-FORCED-PGS
  479. Language                                 : Russian
  480. Default                                  : No
  481. Forced                                   : No

  482. Text #25
  483. ID                                       : 32
  484. Format                                   : PGS
  485. Muxing mode                              : zlib
  486. Codec ID                                 : S_HDMV/PGS
  487. Codec ID/Info                            : Picture based subtitle format used on BDs/HD-DVDs
  488. Duration                                 : 1 h 50 min
  489. Bit rate                                 : 2 668 b/s
  490. Count of elements                        : 248
  491. Stream size                              : 2.10 MiB (0%)
  492. Title                                    : Czech-FORCED-PGS
  493. Language                                 : Czech
  494. Default                                  : No
  495. Forced                                   : No

  496. Text #26
  497. ID                                       : 33
  498. Format                                   : PGS
  499. Muxing mode                              : zlib
  500. Codec ID                                 : S_HDMV/PGS
  501. Codec ID/Info                            : Picture based subtitle format used on BDs/HD-DVDs
  502. Duration                                 : 1 h 50 min
  503. Bit rate                                 : 16.9 kb/s
  504. Count of elements                        : 1523
  505. Stream size                              : 13.3 MiB (0%)
  506. Title                                    : Polish-FORCED-PGS
  507. Language                                 : Polish
  508. Default                                  : No
  509. Forced                                   : No

  510. Menu
  511. 00:00:00.000                             : en:Chapter 1
  512. 00:05:47.638                             : en:Chapter 2
  513. 00:12:50.311                             : en:Chapter 3
  514. 00:16:08.759                             : en:Chapter 4
  515. 00:21:15.023                             : en:Chapter 5
  516. 00:26:25.792                             : en:Chapter 6
  517. 00:30:40.880                             : en:Chapter 7
  518. 00:34:09.547                             : en:Chapter 8
  519. 00:40:20.167                             : en:Chapter 9
  520. 00:47:31.306                             : en:Chapter 10
  521. 00:55:55.185                             : en:Chapter 11
  522. 01:02:25.450                             : en:Chapter 12
  523. 01:07:54.779                             : en:Chapter 13
  524. 01:12:18.917                             : en:Chapter 14
  525. 01:19:51.077                             : en:Chapter 15
  526. 01:24:01.036                             : en:Chapter 16
  527. 01:30:25.545                             : en:Chapter 17
  528. 01:37:01.982                             : en:Chapter 18
  529. 01:42:39.111                             : en:Chapter 19
  530. 01:45:33.160                             : en:Chapter 20



复制代码
复制代码
001129tzlngg9glglvwb0h.jpg 001129z0pvgep44khzidbz.jpg 001129ynancetakauqnnaf.jpg







回复

使用道具 举报

蓝光币
821
发表于 2018-4-6 23:48:24 | 显示全部楼层
强烈支持楼主ing……
回复 支持 反对

使用道具 举报

蓝光币
3072
发表于 2018-4-7 22:31:37 | 显示全部楼层
强烈支持楼主ing……
回复 支持 反对

使用道具 举报

蓝光币
189
发表于 2018-4-18 16:15:48 | 显示全部楼层
楼主加油,我们都看好你哦。
回复 支持 反对

使用道具 举报

懒得打字嘛,点击右侧快捷回复 【右侧内容,后台自定义】
您需要登录后才可以回帖 登录 | 立即加入

本版积分规则

Archiver|小黑屋| 蓝光电影网 |网站地图

Copyright © 2021 Comsenz Inc. Powered by 蓝光电影网

蓝光电影网

本站内容由用户自主分享和转载自互联网,转载目的在于传递更多信息,并不代表本网赞同其观点和对其真实性负责。

如有侵权、违反国家法律政策行为,请联系我们,我们会第一时间及时清除和处理!

举报反馈邮箱:[email protected]

快速回复 返回顶部 返回列表