找回密码

蓝光电影网

查看: 630|回复: 2

[剧情] 幻象/映像 Images.1972.720p.BluRay.x264-USURY 5.47GB

[复制链接]
蓝光币
623
发表于 2018-4-8 22:51:42 | 显示全部楼层 |阅读模式
200823pon3gbyl113l3lnf.jpg
◎译  名 幻象/映像
◎片  名 Images
◎年  代 1972
◎产  地 英国/爱尔兰/美国
◎类  别 剧情/奇异/可骇
◎语  言 英语/法语
◎上映日期 1972-12-18
◎IMDb评分  7.3/10 from 3,617 users
◎IMDb链接  http://www.imdb.com/title/tt0068732/
◎豆瓣评分 7.3/10 from 141 users
◎豆瓣链接 https://movie.douban.com/subject/1298857/
◎片  长 101 分钟
◎导  演 罗伯特·奥特曼 Robert Altman
◎主  演 苏珊娜·约克 Susannah York
      雷内·奥博诺伊斯 Rene Auberjonois
      马塞尔·博祖菲 Marcel Bozzuffi
      休·米莱斯 Hugh Millais

◎简  介

  一对夫妻周末来到了他们位于偏僻村落的农舍。丈夫很少花时候在妻子身上而且很少关心她的感受,因而妻子在精神上发生了一种幻觉:她“见到”了之前阿谁在空难中死去的情人,空想终极致使了悲剧的发生……
  本片导演罗伯特·阿尔特曼,自《高斯福庄园》后,再度成为热门导演,本片获奥斯卡最好音乐提名(作曲是赫赫著名的约翰·威廉姆斯)、金球奖最好外语片提名、英国学院奖最好摄影提名、戛纳国际电影节最好影片提名、金球奖最好本国英语片提名,获戛纳国际电影节最好女演员奖(苏珊娜·约克)。

◎获奖情况

  第45届奥斯卡金像奖  (1973)
  剧情片最好原创配乐(提名) 约翰·威廉姆斯

  第25届戛纳电影节  (1972)
  主比赛单元 金棕榈奖(提名) 罗伯特·奥特曼
  主比赛单元 最好女演员 苏珊娜·约克


  1. Video
  2. ID                                       : 1
  3. Format                                   : AVC
  4. Format/Info                              : Advanced Video Codec
  5. Format profile                           : [email protected]
  6. Format settings                          : CABAC / 5 Ref Frames
  7. Format settings, CABAC                   : Yes
  8. Format settings, RefFrames               : 5 frames
  9. Codec ID                                 : V_MPEG4/ISO/AVC
  10. Duration                                 : 1 h 41 min
  11. Bit rate                                 : 7 098 kb/s
  12. Width                                    : 1 280 pixels
  13. Height                                   : 544 pixels
  14. Display aspect ratio                     : 2.35:1
  15. Frame rate mode                          : Constant
  16. Frame rate                               : 23.976 (24000/1001) FPS
  17. Color space                              : YUV
  18. Chroma subsampling                       : 4:2:0
  19. Bit depth                                : 8 bits
  20. Scan type                                : Progressive
  21. Bits/(Pixel*Frame)                       : 0.425
  22. Stream size                              : 5.02GB (92%)
  23. Writing library                          : x264 core 155 r2901 7d0ff22
  24. Encoding settings                        : cabac=1 / ref=5 / deblock=1:-3:-3 / analyse=0x3:0x133 / me=umh / subme=9 / psy=1 / psy_rd=1.00:0.00 / mixed_ref=1 / me_range=16 / chroma_me=1 / trellis=2 / 8x8dct=1 / cqm=0 / deadzone=21,11 / fast_pskip=0 / chroma_qp_offset=-2 / threads=17 / lookahead_threads=1 / sliced_threads=0 / nr=0 / decimate=1 / interlaced=0 / bluray_compat=0 / constrained_intra=0 / bframes=3 / b_pyramid=2 / b_adapt=1 / b_bias=0 / direct=3 / weightb=1 / open_gop=0 / weightp=2 / keyint=240 / keyint_min=24 / scenecut=40 / intra_refresh=0 / rc_lookahead=50 / rc=2pass / mbtree=1 / bitrate=7098 / ratetol=1.0 / qcomp=0.60 / qpmin=0 / qpmax=69 / qpstep=4 / cplxblur=20.0 / qblur=0.5 / ip_ratio=1.40 / aq=1:1.00
  25. Language                                 : English
  26. Default                                  : Yes
  27. Forced                                   : No

  28. Audio
  29. ID                                       : 2
  30. Format                                   : FLAC
  31. Format/Info                              : Free Lossless Audio Codec
  32. Codec ID                                 : A_FLAC
  33. Duration                                 : 1 h 41 min
  34. Bit rate mode                            : Variable
  35. Bit rate                                 : 632 kb/s
  36. Channel(s)                               : 1 channel
  37. Channel positions                        : Front: C
  38. Sampling rate                            : 48.0 kHz
  39. Frame rate                               : 11.719 FPS (4096 SPF)
  40. Bit depth                                : 24 bits
  41. Stream size                              : 457 MiB (8%)
  42. Writing library                          : libFLAC 1.2.1 (UTC 2007-09-17)
  43. Language                                 : English
  44. Default                                  : Yes
  45. Forced                                   : No

  46. Text #1
  47. ID                                       : 3
  48. Format                                   : UTF-8
  49. Codec ID                                 : S_TEXT/UTF8
  50. Codec ID/Info                            : UTF-8 Plain Text
  51. Duration                                 : 1 h 40 min
  52. Bit rate                                 : 52 b/s
  53. Count of elements                        : 1141
  54. Stream size                              : 38.5 KiB (0%)
  55. Title                                    : English
  56. Language                                 : English
  57. Default                                  : No
  58. Forced                                   : No

  59. Text #2
  60. ID                                       : 4
  61. Format                                   : UTF-8
  62. Codec ID                                 : S_TEXT/UTF8
  63. Codec ID/Info                            : UTF-8 Plain Text
  64. Duration                                 : 1 h 40 min
  65. Bit rate                                 : 54 b/s
  66. Count of elements                        : 1165
  67. Stream size                              : 40.2 KiB (0%)
  68. Title                                    : English SDH
  69. Language                                 : English
  70. Default                                  : No
  71. Forced                                   : No

  72. Menu
  73. 00:00:00.000                             : en:00:00:00.000
  74. 00:10:37.679                             : en:00:10:37.679
  75. 00:15:40.898                             : en:00:15:40.898
  76. 00:26:28.212                             : en:00:26:28.212
  77. 00:39:54.726                             : en:00:39:54.726
  78. 00:47:46.489                             : en:00:47:46.489
  79. 01:00:15.153                             : en:01:00:15.153
  80. 01:08:06.207                             : en:01:08:06.207
  81. 01:14:22.083                             : en:01:14:22.083
  82. 01:24:54.339                             : en:01:24:54.339
  83. 01:32:37.051                             : en:01:32:37.051
  84. 01:37:23.796                             : en:01:37:23.796




复制代码
复制代码
200824xfhax3uy5xqu6zye.jpg







回复

使用道具 举报

蓝光币
915
发表于 2018-4-9 08:43:40 | 显示全部楼层
恐怖片?好像有点意思
回复 支持 反对

使用道具 举报

蓝光币
1328
发表于 2018-4-18 15:32:17 | 显示全部楼层
谢谢楼主分享!
回复 支持 反对

使用道具 举报

懒得打字嘛,点击右侧快捷回复 【右侧内容,后台自定义】
您需要登录后才可以回帖 登录 | 立即加入

本版积分规则

Archiver|小黑屋| 蓝光电影网 |网站地图

Copyright © 2021 Comsenz Inc. Powered by 蓝光电影网

蓝光电影网

本站内容由用户自主分享和转载自互联网,转载目的在于传递更多信息,并不代表本网赞同其观点和对其真实性负责。

如有侵权、违反国家法律政策行为,请联系我们,我们会第一时间及时清除和处理!

举报反馈邮箱:[email protected]

快速回复 返回顶部 返回列表