找回密码

蓝光电影网

查看: 807|回复: 1

[纪录] 人流/人口流动 Human.Flow.2017.1080p.BluRay.REMUX.AVC.DTS-HD.MA.5.1-FGT 28.69GB

[复制链接]
蓝光币
623
发表于 2018-4-8 23:01:03 | 显示全部楼层 |阅读模式
201631s17abzz5aurqs7z5.jpg
◎译  名 人流/生齿活动
◎片  名 Human Flow
◎年  代 2017
◎产  地 德国/美国
◎类  别 记载片
◎语  言 英语
◎上映日期 2017-09-01(威尼斯电影节)
◎IMDb评分  6.8/10 from 1,111 users
◎IMDb链接  http://www.imdb.com/title/tt6573444/
◎豆瓣评分 6.5/10 from 526 users
◎豆瓣链接 https://movie.douban.com/subject/27099390/
◎片  长 140分钟
◎导  演 艾未未 Weiwei Ai
◎主  演 Boris Cheshirkov

◎简  介

  Human Flow is director and artist Ai Weiwei's detailed and heartbreaking exploration into the global refugee crisis.

◎获奖情况

  第74届威尼斯电影节  (2017)
  主比赛单元 金狮奖 (提名) 艾未未

  第22届金卫星奖  (2018)
  电影部分 最好记载片(提名)


  1. Video
  2. ID                                       : 1
  3. Format                                   : AVC
  4. Format/Info                              : Advanced Video Codec
  5. Format profile                           : [email protected]
  6. Format settings                          : CABAC / 4 Ref Frames
  7. Format settings, CABAC                   : Yes
  8. Format settings, ReFrames                : 4 frames
  9. Codec ID                                 : V_MPEG4/ISO/AVC
  10. Duration                                 : 2 h 21 min
  11. Bit rate mode                            : Variable
  12. Bit rate                                 : 23.7 Mb/s
  13. Maximum bit rate                         : 33.0 Mb/s
  14. Width                                    : 1 920 pixels
  15. Height                                   : 1 080 pixels
  16. Display aspect ratio                     : 16:9
  17. Frame rate mode                          : Constant
  18. Frame rate                               : 23.976 (24000/1001) FPS
  19. Standard                                 : NTSC
  20. Color space                              : YUV
  21. Chroma subsampling                       : 4:2:0
  22. Bit depth                                : 8 bits
  23. Scan type                                : Progressive
  24. Bits/(Pixel*Frame)                       : 0.476
  25. Stream size                              : 23.3GB (81%)
  26. Title                                    : Human.Flow.2017.1080p.BluRay.REMUX.AVC.DTS-HD.MA.5.1-FGT
  27. Language                                 : English
  28. Default                                  : No
  29. Forced                                   : No
  30. Color range                              : Limited
  31. Color primaries                          : BT.709
  32. Transfer characteristics                 : BT.709
  33. Matrix coefficients                      : BT.709

  34. Audio #1
  35. ID                                       : 2
  36. Format                                   : DTS
  37. Format/Info                              : Digital Theater Systems
  38. Format profile                           : MA / Core
  39. Codec ID                                 : A_DTS
  40. Duration                                 : 2 h 21 min
  41. Bit rate mode                            : Variable / Constant
  42. Bit rate                                 : 3 657 kb/s / 1 509 kb/s
  43. Channel(s)                               : 6 channels
  44. Channel positions                        : Front: L C R, Side: L R, LFE
  45. Sampling rate                            : 48.0 kHz
  46. Frame rate                               : 93.750 FPS (512 SPF)
  47. Bit depth                                : 24 bits
  48. Compression mode                         : Lossless / Lossy
  49. Stream size                              : 3.60GB (13%)
  50. Title                                    : Human.Flow.2017.1080p.BluRay.REMUX.AVC.DTS-HD.MA.5.1-FGT
  51. Language                                 : English
  52. Default                                  : Yes
  53. Forced                                   : No

  54. Audio #2
  55. ID                                       : 3
  56. Format                                   : DTS
  57. Format/Info                              : Digital Theater Systems
  58. Codec ID                                 : A_DTS
  59. Duration                                 : 2 h 21 min
  60. Bit rate mode                            : Constant
  61. Bit rate                                 : 1 509 kb/s
  62. Channel(s)                               : 6 channels
  63. Channel positions                        : Front: L C R, Side: L R, LFE
  64. Sampling rate                            : 48.0 kHz
  65. Frame rate                               : 93.750 FPS (512 SPF)
  66. Bit depth                                : 24 bits
  67. Compression mode                         : Lossy
  68. Stream size                              : 1.49GB (5%)
  69. Title                                    : Human.Flow.2017.1080p.BluRay.REMUX.AVC.DTS-HD.MA.5.1-FGT
  70. Language                                 : English
  71. Default                                  : No
  72. Forced                                   : No

  73. Audio #3
  74. ID                                       : 4
  75. Format                                   : AC-3
  76. Format/Info                              : Audio Coding 3
  77. Codec ID                                 : A_AC3
  78. Duration                                 : 2 h 21 min
  79. Bit rate mode                            : Constant
  80. Bit rate                                 : 256 kb/s
  81. Channel(s)                               : 2 channels
  82. Channel positions                        : Front: L R
  83. Sampling rate                            : 48.0 kHz
  84. Frame rate                               : 31.250 FPS (1536 SPF)
  85. Bit depth                                : 16 bits
  86. Compression mode                         : Lossy
  87. Stream size                              : 258 MiB (1%)
  88. Title                                    : Human.Flow.2017.1080p.BluRay.REMUX.AVC.DTS-HD.MA.5.1-FGT
  89. Language                                 : English
  90. Service kind                             : Complete Main
  91. Default                                  : No
  92. Forced                                   : No

  93. Text
  94. ID                                       : 5
  95. Format                                   : PGS
  96. Muxing mode                              : zlib
  97. Codec ID                                 : S_HDMV/PGS
  98. Codec ID/Info                            : Picture based subtitle format used on BDs/HD-DVDs
  99. Duration                                 : 2 h 15 min
  100. Bit rate                                 : 11.7 kb/s
  101. Count of elements                        : 1022
  102. Stream size                              : 11.3 MiB (0%)
  103. Title                                    : English-PGS
  104. Language                                 : English
  105. Default                                  : Yes
  106. Forced                                   : No

  107. Menu
  108. 00:00:00.000                             : en:Chapter 01
  109. 00:11:32.024                             : en:Chapter 02
  110. 00:21:01.677                             : en:Chapter 03
  111. 00:32:13.598                             : en:Chapter 04
  112. 00:40:27.633                             : en:Chapter 05
  113. 00:54:14.125                             : en:Chapter 06
  114. 01:07:14.905                             : en:Chapter 07
  115. 01:19:06.575                             : en:Chapter 08
  116. 01:35:46.532                             : en:Chapter 09
  117. 01:47:21.017                             : en:Chapter 10
  118. 02:02:30.468                             : en:Chapter 11
  119. 02:16:22.716                             : en:Chapter 12



复制代码
复制代码
201631gxie3bprh0htw37z.jpg 201632wmmfq75yyqaaazmm.jpg 201632lpl1v5a3havv1psl.jpg







回复

使用道具 举报

蓝光币
1526
发表于 2020-4-25 07:33:05 | 显示全部楼层
太好啦&萬分感謝版主的無私發佈分享%
回复 支持 反对

使用道具 举报

懒得打字嘛,点击右侧快捷回复 【右侧内容,后台自定义】
您需要登录后才可以回帖 登录 | 立即加入

本版积分规则

Archiver|小黑屋| 蓝光电影网 |网站地图

Copyright © 2021 Comsenz Inc. Powered by 蓝光电影网

蓝光电影网

本站内容由用户自主分享和转载自互联网,转载目的在于传递更多信息,并不代表本网赞同其观点和对其真实性负责。

如有侵权、违反国家法律政策行为,请联系我们,我们会第一时间及时清除和处理!

举报反馈邮箱:[email protected]

快速回复 返回顶部 返回列表