找回密码

蓝光电影网

查看: 879|回复: 1

[剧情] 霸天狼 Sky.Hunter.2017.CHINESE.1080p.BluRay.REMUX.AVC.TrueHD.5.1-FGT 19.56GB

[复制链接]
蓝光币
623
发表于 2018-4-10 20:16:26 | 显示全部楼层 |阅读模式
173853x5p4fx84liy1f4ii.jpg
◎译  名 霸天狼
◎片  名 空天猎
◎年  代 2017
◎产  地 中国大陆
◎类  别 剧情/行动/战争
◎语  言 汉语普通话
◎上映日期 2017-09-29(中国大陆)
◎IMDb评分  5.2/10 from 250 users
◎IMDb链接  http://www.imdb.com/title/tt6908536/
◎豆瓣评分 5.1/10 from 43,908 users
◎豆瓣链接 https://movie.douban.com/subject/26753020/
◎片  长 115分钟
◎导  演 李晨 Chen Li
◎主  演 李晨 Chen Li
      范冰冰 Bingbing Fan
      王千源 Qianyuan Wang
      李佳航 Jiahang Li
      赵达 Da Zhao
      李晨浩 Leon Lee
      郭洺宇 Mingyu Guo
      叶浏 Liu Ye
      陆思宇 Siyu Lu
      托马尔·奥兹 Tomer Oz
      吴秀波 Xiubo Wu
      邓超 Chao Deng
      王学圻 Xueqi Wang

◎简  介

  一场空天疆场的猎杀传奇。霸天狼,一支奥秘的空军顶级团队,每一位飞翔员都是“金头盔” 级此外王牌飞翔员,吴迪(李晨 饰)、亚莉(范冰冰 饰)、巴图(郭洺宇 饰)、高原(李晨浩 饰)经过层层考核,成为了霸天狼奥秘基地的一员。可谁也没有想到,吴迪的好友浩辰(李佳航 饰)却在使命中堕入一场境外战乱的诡计。更大的威胁相继而至,可骇势力突 发其来的导弹危机和人质危机,空前地应战着中国空军的实战才能!十万急切之下,最新式 的中国战机和最顶级的飞翔员,与把握导弹密码和先辈战机的仇敌,在境外天空展开一场生死对决......


  1. Video
  2. ID                                       : 1
  3. Format                                   : AVC
  4. Format/Info                              : Advanced Video Codec
  5. Format profile                           : [email protected]
  6. Format settings                          : CABAC / 4 Ref Frames
  7. Format settings, CABAC                   : Yes
  8. Format settings, ReFrames                : 4 frames
  9. Codec ID                                 : V_MPEG4/ISO/AVC
  10. Duration                                 : 1 h 55 min
  11. Bit rate mode                            : Variable
  12. Bit rate                                 : 19.8 Mb/s
  13. Maximum bit rate                         : 25.0 Mb/s
  14. Width                                    : 1 920 pixels
  15. Height                                   : 1 080 pixels
  16. Display aspect ratio                     : 16:9
  17. Frame rate mode                          : Constant
  18. Frame rate                               : 24.000 FPS
  19. Color space                              : YUV
  20. Chroma subsampling                       : 4:2:0
  21. Bit depth                                : 8 bits
  22. Scan type                                : Progressive
  23. Bits/(Pixel*Frame)                       : 0.399
  24. Stream size                              : 16.0GB (82%)
  25. Title                                    : Sky.Hunter.2017.CHINESE.1080p.BluRay.REMUX.AVC.TrueHD.5.1-FGT
  26. Language                                 : English
  27. Default                                  : No
  28. Forced                                   : No

  29. Audio #1
  30. ID                                       : 2
  31. Format                                   : TrueHD
  32. Codec ID                                 : A_TRUEHD
  33. Duration                                 : 1 h 55 min
  34. Bit rate mode                            : Variable
  35. Bit rate                                 : 3 096 kb/s
  36. Maximum bit rate                         : 5 040 kb/s
  37. Channel(s)                               : 6 channels
  38. Channel positions                        : Front: L C R, Side: L R, LFE
  39. Sampling rate                            : 96.0 kHz
  40. Frame rate                               : 2 400.000 FPS (40 SPF)
  41. Compression mode                         : Lossless
  42. Stream size                              : 2.49GB (13%)
  43. Title                                    : Sky.Hunter.2017.CHINESE.1080p.BluRay.REMUX.AVC.TrueHD.5.1-FGT
  44. Language                                 : Chinese
  45. Default                                  : Yes
  46. Forced                                   : No

  47. Audio #2
  48. ID                                       : 3
  49. Format                                   : AC-3
  50. Format/Info                              : Audio Coding 3
  51. Codec ID                                 : A_AC3
  52. Duration                                 : 1 h 55 min
  53. Bit rate mode                            : Constant
  54. Bit rate                                 : 640 kb/s
  55. Channel(s)                               : 6 channels
  56. Channel positions                        : Front: L C R, Side: L R, LFE
  57. Sampling rate                            : 48.0 kHz
  58. Frame rate                               : 31.250 FPS (1536 SPF)
  59. Bit depth                                : 16 bits
  60. Compression mode                         : Lossy
  61. Stream size                              : 527 MiB (3%)
  62. Title                                    : Sky.Hunter.2017.CHINESE.1080p.BluRay.REMUX.AVC.TrueHD.5.1-FGT
  63. Language                                 : Chinese
  64. Service kind                             : Complete Main
  65. Default                                  : No
  66. Forced                                   : No

  67. Audio #3
  68. ID                                       : 4
  69. Format                                   : AC-3
  70. Format/Info                              : Audio Coding 3
  71. Codec ID                                 : A_AC3
  72. Duration                                 : 1 h 55 min
  73. Bit rate mode                            : Constant
  74. Bit rate                                 : 640 kb/s
  75. Channel(s)                               : 6 channels
  76. Channel positions                        : Front: L C R, Side: L R, LFE
  77. Sampling rate                            : 48.0 kHz
  78. Frame rate                               : 31.250 FPS (1536 SPF)
  79. Bit depth                                : 16 bits
  80. Compression mode                         : Lossy
  81. Stream size                              : 527 MiB (3%)
  82. Title                                    : Sky.Hunter.2017.CHINESE.1080p.BluRay.REMUX.AVC.TrueHD.5.1-FGT
  83. Language                                 : Chinese
  84. Service kind                             : Complete Main
  85. Default                                  : No
  86. Forced                                   : No

  87. Text #1
  88. ID                                       : 5
  89. Format                                   : PGS
  90. Muxing mode                              : zlib
  91. Codec ID                                 : S_HDMV/PGS
  92. Codec ID/Info                            : Picture based subtitle format used on BDs/HD-DVDs
  93. Duration                                 : 1 h 43 min
  94. Bit rate                                 : 29.5 kb/s
  95. Count of elements                        : 2057
  96. Stream size                              : 21.9 MiB (0%)
  97. Title                                    : English-PGS
  98. Language                                 : English
  99. Default                                  : Yes
  100. Forced                                   : Yes

  101. Text #2
  102. ID                                       : 6
  103. Format                                   : PGS
  104. Muxing mode                              : zlib
  105. Codec ID                                 : S_HDMV/PGS
  106. Codec ID/Info                            : Picture based subtitle format used on BDs/HD-DVDs
  107. Duration                                 : 1 h 43 min
  108. Bit rate                                 : 26.0 kb/s
  109. Count of elements                        : 2058
  110. Stream size                              : 19.3 MiB (0%)
  111. Title                                    : Chinese-PGS
  112. Language                                 : Chinese
  113. Default                                  : No
  114. Forced                                   : No

  115. Text #3
  116. ID                                       : 7
  117. Format                                   : PGS
  118. Muxing mode                              : zlib
  119. Codec ID                                 : S_HDMV/PGS
  120. Codec ID/Info                            : Picture based subtitle format used on BDs/HD-DVDs
  121. Duration                                 : 1 h 43 min
  122. Bit rate                                 : 24.0 kb/s
  123. Count of elements                        : 2058
  124. Stream size                              : 17.8 MiB (0%)
  125. Title                                    : Chinese-PGS
  126. Language                                 : Chinese
  127. Default                                  : No
  128. Forced                                   : No

  129. Menu
  130. 00:00:00.000                             : en:Chapter 01
  131. 00:06:12.708                             : en:Chapter 02
  132. 00:11:53.416                             : en:Chapter 03
  133. 00:16:20.416                             : en:Chapter 04
  134. 00:21:21.791                             : en:Chapter 05
  135. 00:26:30.833                             : en:Chapter 06
  136. 00:33:06.583                             : en:Chapter 07
  137. 00:37:34.583                             : en:Chapter 08
  138. 00:43:19.083                             : en:Chapter 09
  139. 00:50:11.166                             : en:Chapter 10
  140. 00:57:22.583                             : en:Chapter 11
  141. 01:01:42.083                             : en:Chapter 12
  142. 01:06:19.208                             : en:Chapter 13
  143. 01:11:45.708                             : en:Chapter 14
  144. 01:17:08.041                             : en:Chapter 15
  145. 01:22:43.333                             : en:Chapter 16
  146. 01:26:37.125                             : en:Chapter 17
  147. 01:34:41.458                             : en:Chapter 18
  148. 01:40:40.458                             : en:Chapter 19
  149. 01:46:36.125                             : en:Chapter 20



复制代码
复制代码
173853pyjrwjfrrjrjr0rb.jpg 173854ay82bmh12178h11o.jpg 173854v2pazvnxdrtad6x0.jpg







回复

使用道具 举报

懒得打字嘛,点击右侧快捷回复 【右侧内容,后台自定义】
您需要登录后才可以回帖 登录 | 立即加入

本版积分规则

Archiver|小黑屋| 蓝光电影网 |网站地图

Copyright © 2021 Comsenz Inc. Powered by 蓝光电影网

蓝光电影网

本站内容由用户自主分享和转载自互联网,转载目的在于传递更多信息,并不代表本网赞同其观点和对其真实性负责。

如有侵权、违反国家法律政策行为,请联系我们,我们会第一时间及时清除和处理!

举报反馈邮箱:[email protected]

快速回复 返回顶部 返回列表