找回密码

蓝光电影网

查看: 901|回复: 2

[喜剧] 我的幽默 Humor.Me.2017.1080p.BluRay.REMUX.AVC.DTS-HD.MA.5.1-FGT 25.81GB

[复制链接]
蓝光币
623
发表于 2018-4-12 22:26:04 | 显示全部楼层 |阅读模式
192206to8n883i8n8rs8nm.jpg
◎译  名 我的诙谐
◎片  名 Humor Me
◎年  代 2016
◎产  地 美国
◎类  别 笑剧
◎语  言 英语
◎上映日期 2016-07-12
◎IMDb评分  5.8/10 from 103 users
◎IMDb链接  http://www.imdb.com/title/tt5658242/
◎豆瓣评分 /10 from 0 users
◎豆瓣链接 https://movie.douban.com/subject/26922043/
◎片  长 93分钟
◎导  演 Sam Hoffman
◎主  演 杰梅奈·克莱门特 Jemaine Clement
      埃利奥特·古尔德 Elliott Gould
      埃里克·贝尔根 Erich Bergen

◎简  介

  None


  1. Video
  2. ID                                       : 1
  3. Format                                   : AVC
  4. Format/Info                              : Advanced Video Codec
  5. Format profile                           : [email protected]
  6. Format settings                          : CABAC / 4 Ref Frames
  7. Format settings, CABAC                   : Yes
  8. Format settings, ReFrames                : 4 frames
  9. Codec ID                                 : V_MPEG4/ISO/AVC
  10. Duration                                 : 1 h 33 min
  11. Bit rate mode                            : Variable
  12. Bit rate                                 : 31.6 Mb/s
  13. Maximum bit rate                         : 36.0 Mb/s
  14. Width                                    : 1 920 pixels
  15. Height                                   : 1 080 pixels
  16. Display aspect ratio                     : 16:9
  17. Frame rate mode                          : Constant
  18. Frame rate                               : 23.976 (24000/1001) FPS
  19. Color space                              : YUV
  20. Chroma subsampling                       : 4:2:0
  21. Bit depth                                : 8 bits
  22. Scan type                                : Progressive
  23. Bits/(Pixel*Frame)                       : 0.636
  24. Stream size                              : 20.6GB (80%)
  25. Title                                    : Humor.Me.2017.1080p.BluRay.REMUX.AVC.DTS-HD.MA.5.1-FGT
  26. Language                                 : English
  27. Default                                  : No
  28. Forced                                   : No

  29. Audio #1
  30. ID                                       : 2
  31. Format                                   : DTS
  32. Format/Info                              : Digital Theater Systems
  33. Format profile                           : MA / Core
  34. Codec ID                                 : A_DTS
  35. Duration                                 : 1 h 33 min
  36. Bit rate mode                            : Variable / Constant
  37. Bit rate                                 : 3 234 kb/s / 1 509 kb/s
  38. Channel(s)                               : 6 channels
  39. Channel positions                        : Front: L C R, Side: L R, LFE
  40. Sampling rate                            : 48.0 kHz
  41. Frame rate                               : 93.750 FPS (512 SPF)
  42. Bit depth                                : 24 bits
  43. Compression mode                         : Lossless / Lossy
  44. Stream size                              : 2.11GB (8%)
  45. Title                                    : Humor.Me.2017.1080p.BluRay.REMUX.AVC.DTS-HD.MA.5.1-FGT
  46. Language                                 : English
  47. Default                                  : Yes
  48. Forced                                   : No

  49. Audio #2
  50. ID                                       : 3
  51. Format                                   : DTS
  52. Format/Info                              : Digital Theater Systems
  53. Codec ID                                 : A_DTS
  54. Duration                                 : 1 h 33 min
  55. Bit rate mode                            : Constant
  56. Bit rate                                 : 1 509 kb/s
  57. Channel(s)                               : 6 channels
  58. Channel positions                        : Front: L C R, Side: L R, LFE
  59. Sampling rate                            : 48.0 kHz
  60. Frame rate                               : 93.750 FPS (512 SPF)
  61. Bit depth                                : 24 bits
  62. Compression mode                         : Lossy
  63. Stream size                              : 1 008 MiB (4%)
  64. Title                                    : Humor.Me.2017.1080p.BluRay.REMUX.AVC.DTS-HD.MA.5.1-FGT
  65. Language                                 : English
  66. Default                                  : No
  67. Forced                                   : No

  68. Audio #3
  69. ID                                       : 4
  70. Format                                   : DTS
  71. Format/Info                              : Digital Theater Systems
  72. Format profile                           : MA / Core
  73. Codec ID                                 : A_DTS
  74. Duration                                 : 1 h 33 min
  75. Bit rate mode                            : Variable / Constant
  76. Bit rate                                 : 1 659 kb/s / 1 509 kb/s
  77. Channel(s)                               : 2 channels
  78. Channel positions                        : Front: L R
  79. Sampling rate                            : 48.0 kHz
  80. Frame rate                               : 93.750 FPS (512 SPF)
  81. Bit depth                                : 24 bits
  82. Compression mode                         : Lossless / Lossy
  83. Stream size                              : 1.08GB (4%)
  84. Title                                    : Humor.Me.2017.1080p.BluRay.REMUX.AVC.DTS-HD.MA.5.1-FGT
  85. Language                                 : English
  86. Default                                  : No
  87. Forced                                   : No

  88. Audio #4
  89. ID                                       : 5
  90. Format                                   : DTS
  91. Format/Info                              : Digital Theater Systems
  92. Codec ID                                 : A_DTS
  93. Duration                                 : 1 h 33 min
  94. Bit rate mode                            : Constant
  95. Bit rate                                 : 1 509 kb/s
  96. Channel(s)                               : 2 channels
  97. Channel positions                        : Front: L R
  98. Sampling rate                            : 48.0 kHz
  99. Frame rate                               : 93.750 FPS (512 SPF)
  100. Bit depth                                : 24 bits
  101. Compression mode                         : Lossy
  102. Stream size                              : 1 008 MiB (4%)
  103. Title                                    : Humor.Me.2017.1080p.BluRay.REMUX.AVC.DTS-HD.MA.5.1-FGT
  104. Language                                 : English
  105. Default                                  : No
  106. Forced                                   : No

  107. Text
  108. ID                                       : 6
  109. Format                                   : PGS
  110. Muxing mode                              : zlib
  111. Codec ID                                 : S_HDMV/PGS
  112. Codec ID/Info                            : Picture based subtitle format used on BDs/HD-DVDs
  113. Duration                                 : 1 h 27 min
  114. Bit rate                                 : 45.6 kb/s
  115. Count of elements                        : 2182
  116. Stream size                              : 28.6 MiB (0%)
  117. Title                                    : English-PGS
  118. Language                                 : English
  119. Default                                  : No
  120. Forced                                   : No

  121. Menu
  122. 00:00:00.000                             : en:Chapter 01
  123. 00:08:26.339                             : en:Chapter 02
  124. 00:17:06.525                             : en:Chapter 03
  125. 00:25:35.367                             : en:Chapter 04
  126. 00:35:11.734                             : en:Chapter 05
  127. 00:42:22.331                             : en:Chapter 06
  128. 00:50:03.208                             : en:Chapter 07
  129. 00:56:16.998                             : en:Chapter 08
  130. 01:04:38.749                             : en:Chapter 09
  131. 01:11:08.764                             : en:Chapter 10
  132. 01:19:27.137                             : en:Chapter 11
  133. 01:28:06.572                             : en:Chapter 12
  134. 01:33:23.848                             : en:Chapter 13



复制代码
复制代码
192206k8enme6xw8vyvx8i.jpg 192206hmdgppp5qppppgkb.jpg 192207qr8pxhno5rmudehn.jpg






回复

使用道具 举报

蓝光币
143
发表于 2018-4-14 14:19:19 | 显示全部楼层
666666666666666
回复 支持 反对

使用道具 举报

蓝光币
821
发表于 2018-4-14 14:25:56 | 显示全部楼层
感谢分享!!!
回复

使用道具 举报

懒得打字嘛,点击右侧快捷回复 【右侧内容,后台自定义】
您需要登录后才可以回帖 登录 | 立即加入

本版积分规则

Archiver|小黑屋| 蓝光电影网 |网站地图

Copyright © 2021 Comsenz Inc. Powered by 蓝光电影网

蓝光电影网

本站内容由用户自主分享和转载自互联网,转载目的在于传递更多信息,并不代表本网赞同其观点和对其真实性负责。

如有侵权、违反国家法律政策行为,请联系我们,我们会第一时间及时清除和处理!

举报反馈邮箱:[email protected]

快速回复 返回顶部 返回列表