找回密码

蓝光电影网

查看: 3442|回复: 2

[动作] 贼巢/极盗战 Den.Of.Thieves.2018.UNRATED.1080p.BluRay.x264.DTS-HD.MA.5.1-FGT 12.91GB

[复制链接]
蓝光币
623
发表于 2018-4-15 09:57:24 | 显示全部楼层 |阅读模式
192054gssb6c255226k2fy.jpg
◎译  名 贼巢/极盗战/贼斗
◎片  名 Den of Thieves
◎年  代 2018
◎产  地 美国
◎类  别 行动/犯罪/惊悚
◎语  言 英语
◎上映日期 2018-01-19(美国)
◎IMDb评分  7.1/10 from 14,027 users
◎IMDb链接  http://www.imdb.com/title/tt1259528/
◎豆瓣评分 6.7/10 from 616 users
◎豆瓣链接 https://movie.douban.com/subject/3143727/
◎片  长 140分钟
◎导  演 克里斯蒂安·古德加斯特 Christian Gudegast
◎主  演 杰拉德·巴特勒 Gerard Butler
      巴勃罗·施瑞博尔 Pablo Schreiber
      小奥谢拉·杰克逊 O'Shea Jackson Jr.
      50分 50 Cent
      梅多·威廉姆斯 Meadow Williams
      莫里斯·孔特 Maurice Compte
      布莱恩·范·霍尔特 Brian Van Holt
      伊万·琼斯 Evan Jones
      莫·麦克雷 Mo McRae
      凯维·莱曼-默塞尤 Kaiwi Lyman-Mersereau
      道恩·奥利弗瑞 Dawn Olivieri
      艾瑞克·布里登 Eric Braeden
      约旦·布里奇斯 Jordan Bridges
      刘易斯·谭 Lewis Tan
      库珀·安德鲁斯 Cooper Andrews

◎简  介

  从未被劫的银行,三万万无记认钞票,引爆连环盗计。一群以梅雷亚(巴勃罗·施瑞博尔 饰)为首的高智罪犯,手法高明、火力强横、而且沉迷掠夺;纵使犯案累累,却甚少破绽,令警方一筹莫展。一次押款车劫案后,他们的翅膀唐尼(奥谢拉·杰克逊 饰)被辣手神探尼克(杰拉德·巴特勒 饰)看破,更从他身上晓得匪帮下一个方针,是攻破从未遇劫的洛杉矶联邦储备银行,从中窃取三万万行将烧毁的旧钞!因而尼克布下收罗密布,想乘隙把他们一网成擒。但是,魔高一丈;梅雷亚以声东击西之法,引开警方留意。尼克错失擒获他们的良机,惟有尾随追击,双方展开连场枪战。虽然终极截获贼匪,但赃款竟全数不知去向!局中有局,究竟谁是获得巨款的幕后赢家?


  1. Video
  2. ID                                       : 1
  3. Format                                   : AVC
  4. Format/Info                              : Advanced Video Codec
  5. Format profile                           : [email protected]
  6. Format settings                          : CABAC / 5 Ref Frames
  7. Format settings, CABAC                   : Yes
  8. Format settings, ReFrames                : 5 frames
  9. Codec ID                                 : V_MPEG4/ISO/AVC
  10. Duration                                 : 2 h 28 min
  11. Bit rate                                 : 9 001 kb/s
  12. Width                                    : 1 920 pixels
  13. Height                                   : 800 pixels
  14. Display aspect ratio                     : 2.40:1
  15. Frame rate mode                          : Constant
  16. Frame rate                               : 23.976 (24000/1001) FPS
  17. Color space                              : YUV
  18. Chroma subsampling                       : 4:2:0
  19. Bit depth                                : 8 bits
  20. Scan type                                : Progressive
  21. Bits/(Pixel*Frame)                       : 0.244
  22. Stream size                              : 9.35GB (72%)
  23. Title                                    : Den.Of.Thieves.2018.UNRATED.1080p.BluRay.x264.DTS-HD.MA.5.1-FGT
  24. Writing library                          : x264 core 155 r2901 7d0ff22
  25. Encoding settings                        : cabac=1 / ref=5 / deblock=1:0:0 / analyse=0x3:0x133 / me=umh / subme=7 / psy=1 / psy_rd=1.00:0.00 / mixed_ref=1 / me_range=16 / chroma_me=1 / trellis=1 / 8x8dct=1 / cqm=0 / deadzone=21,11 / fast_pskip=0 / chroma_qp_offset=-2 / threads=24 / lookahead_threads=4 / sliced_threads=0 / nr=0 / decimate=1 / interlaced=0 / bluray_compat=0 / constrained_intra=0 / bframes=3 / b_pyramid=2 / b_adapt=1 / b_bias=0 / direct=1 / weightb=1 / open_gop=0 / weightp=2 / keyint=250 / keyint_min=23 / scenecut=40 / intra_refresh=0 / rc_lookahead=40 / rc=2pass / mbtree=1 / bitrate=9001 / ratetol=1.0 / qcomp=0.60 / qpmin=0 / qpmax=69 / qpstep=4 / cplxblur=20.0 / qblur=0.5 / ip_ratio=1.40 / aq=1:1.00
  26. Language                                 : English
  27. Default                                  : Yes
  28. Forced                                   : No

  29. Audio
  30. ID                                       : 2
  31. Format                                   : DTS
  32. Format/Info                              : Digital Theater Systems
  33. Format profile                           : MA / Core
  34. Codec ID                                 : A_DTS
  35. Duration                                 : 2 h 28 min
  36. Bit rate mode                            : Variable / Constant
  37. Bit rate                                 : 3 411 kb/s / 1 509 kb/s
  38. Channel(s)                               : 6 channels
  39. Channel positions                        : Front: L C R, Side: L R, LFE
  40. Sampling rate                            : 48.0 kHz
  41. Frame rate                               : 93.750 FPS (512 SPF)
  42. Bit depth                                : 24 bits
  43. Compression mode                         : Lossless / Lossy
  44. Stream size                              : 3.55GB (27%)
  45. Title                                    : Den.Of.Thieves.2018.UNRATED.1080p.BluRay.x264.DTS-HD.MA.5.1-FGT
  46. Language                                 : English
  47. Default                                  : Yes
  48. Forced                                   : No

  49. Text #1
  50. ID                                       : 3
  51. Format                                   : UTF-8
  52. Codec ID                                 : S_TEXT/UTF8
  53. Codec ID/Info                            : UTF-8 Plain Text
  54. Duration                                 : 2 h 20 min
  55. Bit rate                                 : 49 b/s
  56. Count of elements                        : 1714
  57. Stream size                              : 50.6 KiB (0%)
  58. Title                                    : English-SRT
  59. Language                                 : English
  60. Default                                  : Yes
  61. Forced                                   : No

  62. Text #2
  63. ID                                       : 4
  64. Format                                   : PGS
  65. Muxing mode                              : zlib
  66. Codec ID                                 : S_HDMV/PGS
  67. Codec ID/Info                            : Picture based subtitle format used on BDs/HD-DVDs
  68. Duration                                 : 2 h 20 min
  69. Bit rate                                 : 33.4 kb/s
  70. Count of elements                        : 3428
  71. Stream size                              : 33.5 MiB (0%)
  72. Title                                    : English-PGS
  73. Language                                 : English
  74. Default                                  : No
  75. Forced                                   : No

  76. Menu
  77. 00:00:00.000                             : :00:00:00.000
  78. 00:09:38.870                             : :00:09:38.870
  79. 00:17:31.968                             : :00:17:31.968
  80. 00:24:03.734                             : :00:24:03.734
  81. 00:30:30.412                             : :00:30:30.412
  82. 00:43:48.084                             : :00:43:48.084
  83. 00:49:54.992                             : :00:49:54.992
  84. 00:58:58.285                             : :00:58:58.285
  85. 01:05:05.109                             : :01:05:05.109
  86. 01:10:42.780                             : :01:10:42.780
  87. 01:16:20.993                             : :01:16:20.993
  88. 01:25:11.481                             : :01:25:11.481
  89. 01:29:54.514                             : :01:29:54.514
  90. 01:35:50.870                             : :01:35:50.870
  91. 01:40:39.909                             : :01:40:39.909
  92. 01:50:22.532                             : :01:50:22.532
  93. 01:58:30.728                             : :01:58:30.728
  94. 02:04:59.909                             : :02:04:59.909
  95. 02:14:28.018                             : :02:14:28.018
  96. 02:22:15.318                             : :02:22:15.318



复制代码
复制代码
192055nduibrolvvvdql99.jpg 192055dvvl2plu9w3z0ls3.jpg 192055mdloo76doh404cof.jpg






回复

使用道具 举报

蓝光币
821
发表于 2018-4-15 10:33:05 | 显示全部楼层
感谢分享好电影
回复 支持 反对

使用道具 举报

蓝光币
6
发表于 2021-10-17 10:12:42 | 显示全部楼层
感谢分享
回复

使用道具 举报

懒得打字嘛,点击右侧快捷回复 【右侧内容,后台自定义】
您需要登录后才可以回帖 登录 | 立即加入

本版积分规则

Archiver|小黑屋| 蓝光电影网 |网站地图

Copyright © 2021 Comsenz Inc. Powered by 蓝光电影网

蓝光电影网

本站内容由用户自主分享和转载自互联网,转载目的在于传递更多信息,并不代表本网赞同其观点和对其真实性负责。

如有侵权、违反国家法律政策行为,请联系我们,我们会第一时间及时清除和处理!

举报反馈邮箱:[email protected]

快速回复 返回顶部 返回列表