找回密码

蓝光电影网

查看: 881|回复: 0

[剧情] 雪之丞变化/男伎的复仇 An.Actors.Revenge.1963.720p.BluRay.x264-USURY 6.56GB

[复制链接]
蓝光币
623
发表于 2018-4-17 22:57:21 | 显示全部楼层 |阅读模式
041742x0qzttqhpcbhbdan.jpg
◎译  名 雪之丞变化/男伎的复仇
◎片  名 雪之丞変化
◎年  代 1963
◎产  地 日本
◎类  别 剧情
◎语  言 日语
◎上映日期 1963-01-13
◎IMDb评分  7.6/10 from 1,512 users
◎IMDb链接  http://www.imdb.com/title/tt0057710/
◎豆瓣评分 7.8/10 from 476 users
◎豆瓣链接 https://movie.douban.com/subject/1297019/
◎片  长 113 分钟/Argentina: 115 分钟
◎导  演 市川昆 Kon Ichikawa
◎主  演 长谷川一夫 Kazuo Hasegawa
      山本富士子 Fujiko Yamamoto
      若尾文子 Ayako Wakao

◎简  介

  著名歌舞伎演员中村雪之丞(长谷川一夫 饰),其童年时怙恃遭奸人谗谄,相继身亡。年幼的雪之丞无依无靠,幸遇仗义善良的歌舞伎一人中村菊之丞(市川中車 饰)。菊之丞将其收为徒弟,倾囊教授舞技和剑术,立誓辅佐雪之丞报仇雪恨。
  转眼数年曩昔,雪之丞已经长大为独当一面的优异歌舞伎艺人。他与徒弟一路来至江户,终究发现仇人——原长崎推行——土部三斎(中村鴈治郎 饰),复仇之火自此熊熊燃起……
  本片按照三上於菟吉同名原著改编,并荣获1964年逐日电影最好艺术指导殊荣。


  1. Video
  2. ID                                       : 1
  3. Format                                   : AVC
  4. Format/Info                              : Advanced Video Codec
  5. Format profile                           : [email protected]
  6. Format settings                          : CABAC / 5 Ref Frames
  7. Format settings, CABAC                   : Yes
  8. Format settings, RefFrames               : 5 frames
  9. Codec ID                                 : V_MPEG4/ISO/AVC
  10. Duration                                 : 1 h 53 min
  11. Bit rate                                 : 7 755 kb/s
  12. Width                                    : 1 280 pixels
  13. Height                                   : 560 pixels
  14. Display aspect ratio                     : 2.25:1
  15. Frame rate mode                          : Constant
  16. Frame rate                               : 24.000 FPS
  17. Color space                              : YUV
  18. Chroma subsampling                       : 4:2:0
  19. Bit depth                                : 8 bits
  20. Scan type                                : Progressive
  21. Bits/(Pixel*Frame)                       : 0.451
  22. Stream size                              : 6.13GB (93%)
  23. Writing library                          : x264 core 155 r2901 7d0ff22
  24. Encoding settings                        : cabac=1 / ref=5 / deblock=1:-3:-3 / analyse=0x3:0x133 / me=umh / subme=9 / psy=1 / psy_rd=1.00:0.00 / mixed_ref=1 / me_range=16 / chroma_me=1 / trellis=2 / 8x8dct=1 / cqm=0 / deadzone=21,11 / fast_pskip=0 / chroma_qp_offset=-2 / threads=17 / lookahead_threads=1 / sliced_threads=0 / nr=0 / decimate=1 / interlaced=0 / bluray_compat=0 / constrained_intra=0 / bframes=3 / b_pyramid=2 / b_adapt=1 / b_bias=0 / direct=3 / weightb=1 / open_gop=0 / weightp=2 / keyint=240 / keyint_min=24 / scenecut=40 / intra_refresh=0 / rc_lookahead=50 / rc=2pass / mbtree=1 / bitrate=7755 / ratetol=1.0 / qcomp=0.60 / qpmin=0 / qpmax=69 / qpstep=4 / cplxblur=20.0 / qblur=0.5 / ip_ratio=1.40 / aq=1:1.00
  25. Language                                 : English
  26. Default                                  : Yes
  27. Forced                                   : No

  28. Audio
  29. ID                                       : 2
  30. Format                                   : FLAC
  31. Format/Info                              : Free Lossless Audio Codec
  32. Codec ID                                 : A_FLAC
  33. Duration                                 : 1 h 53 min
  34. Bit rate mode                            : Variable
  35. Bit rate                                 : 541 kb/s
  36. Channel(s)                               : 2 channels
  37. Channel positions                        : Front: L R
  38. Sampling rate                            : 48.0 kHz
  39. Frame rate                               : 11.719 FPS (4096 SPF)
  40. Bit depth                                : 24 bits
  41. Stream size                              : 438 MiB (7%)
  42. Writing library                          : libFLAC 1.2.1 (UTC 2007-09-17)
  43. Language                                 : Japanese
  44. Default                                  : Yes
  45. Forced                                   : No

  46. Text
  47. ID                                       : 3
  48. Format                                   : UTF-8
  49. Codec ID                                 : S_TEXT/UTF8
  50. Codec ID/Info                            : UTF-8 Plain Text
  51. Duration                                 : 1 h 52 min
  52. Bit rate                                 : 45 b/s
  53. Count of elements                        : 1123
  54. Stream size                              : 37.2 KiB (0%)
  55. Title                                    : English
  56. Language                                 : English
  57. Default                                  : Yes
  58. Forced                                   : Yes

  59. Menu
  60. 00:00:00.000                             : en:00:00:00.000
  61. 00:10:51.667                             : en:00:10:51.667
  62. 00:19:15.167                             : en:00:19:15.167
  63. 00:33:52.542                             : en:00:33:52.542
  64. 00:44:52.667                             : en:00:44:52.667
  65. 00:50:39.542                             : en:00:50:39.542
  66. 00:59:45.667                             : en:00:59:45.667
  67. 01:08:45.917                             : en:01:08:45.917
  68. 01:19:21.708                             : en:01:19:21.708
  69. 01:27:53.042                             : en:01:27:53.042
  70. 01:35:19.417                             : en:01:35:19.417
  71. 01:45:55.250                             : en:01:45:55.250




复制代码
复制代码
041742dkzjk7tkmoiz7ixf.jpg







回复

使用道具 举报

懒得打字嘛,点击右侧快捷回复 【右侧内容,后台自定义】
您需要登录后才可以回帖 登录 | 立即加入

本版积分规则

Archiver|小黑屋| 蓝光电影网 |网站地图

Copyright © 2021 Comsenz Inc. Powered by 蓝光电影网

蓝光电影网

本站内容由用户自主分享和转载自互联网,转载目的在于传递更多信息,并不代表本网赞同其观点和对其真实性负责。

如有侵权、违反国家法律政策行为,请联系我们,我们会第一时间及时清除和处理!

举报反馈邮箱:[email protected]

快速回复 返回顶部 返回列表