找回密码

蓝光电影网

查看: 1167|回复: 7

[剧情] 巴黎小情歌 Love.Songs.2007.1080p.BluRay.x264-USURY 7.65GB

[复制链接]
蓝光币
623
发表于 2018-4-17 23:01:39 | 显示全部楼层 |阅读模式
041557e2a2u779banbu9wd.jpg
◎译  名 巴黎小情歌
◎片  名 Les chansons d'amour
◎年  代 2007
◎产  地 法国
◎类  别 剧情/歌舞/恋爱
◎语  言 法语
◎上映日期 2007-05-23
◎IMDb评分  7.2/10 from 7,994 users
◎IMDb链接  http://www.imdb.com/title/tt0996605/
◎豆瓣评分 7.4/10 from 12,889 users
◎豆瓣链接 https://movie.douban.com/subject/2056653/
◎片  长 100 分钟/South Korea: 91 分钟
◎导  演 克里斯托夫·奥诺雷 Christophe Honoré
◎主  演 路易斯·加瑞尔 Louis Garrel
      露迪芬·莎妮 Ludivine Sagnier
      基娅拉·马斯特洛亚尼 Chiara Mastroianni
      克劳迪德·埃斯曼 Clotilde Hesme
      格雷戈瓦·勒普兰斯-林盖 Grégoire Leprince-Ringuet

◎简  介

  伊斯麦(路易斯·加瑞尔 Louis Garrel 饰)和茱莉(露迪芬·莎妮 Ludivine Sagnier 饰)是一对发生裂缝的情侣,是以异想天开找来伊斯麦同事爱丽丝(克劳迪德·埃斯曼 Clotilde Hesme 饰)加入他们,试图用三人行为恋爱增加豪情。但三小我的恋爱,毕竟只是懊恼的叠加,一场争持以后,茱莉突发心脏急病倒在酒吧。现在剩下伊斯麦和爱丽丝的二人天下,可是惭愧和驰念令伊斯麦无福消受,茱莉的家人也起头以“关切”的姿势进入伊斯麦的生活,特别是其姐珍娜(基娅拉·马斯特洛亚尼 Chiara Mastroianni 饰)近乎骚扰地出现在他家里,令他快要发狂。为了回避一切,伊斯麦躲到好友家,却又引来好友弟弟伊旺(格雷戈瓦·勒普兰斯-林盖 Grégoire Leprince-Ringuet 饰)的热烈追求……
  巴黎的雨总是不停息,正如悲伤的汉子永久走不出一段已死感情的阴影……

◎获奖情况

  第60届戛纳电影节  (2007)
  主比赛单元 金棕榈奖(提名) 克里斯托夫·奥诺雷


  1. Video
  2. ID                                       : 1
  3. Format                                   : AVC
  4. Format/Info                              : Advanced Video Codec
  5. Format profile                           : [email protected]
  6. Format settings                          : CABAC / 4 Ref Frames
  7. Format settings, CABAC                   : Yes
  8. Format settings, RefFrames               : 4 frames
  9. Codec ID                                 : V_MPEG4/ISO/AVC
  10. Duration                                 : 1 h 31 min
  11. Bit rate                                 : 10.4 Mb/s
  12. Width                                    : 1 920 pixels
  13. Height                                   : 1 040 pixels
  14. Display aspect ratio                     : 1.85:1
  15. Frame rate mode                          : Constant
  16. Frame rate                               : 25.000 FPS
  17. Color space                              : YUV
  18. Chroma subsampling                       : 4:2:0
  19. Bit depth                                : 8 bits
  20. Scan type                                : Progressive
  21. Bits/(Pixel*Frame)                       : 0.209
  22. Stream size                              : 6.68GB (87%)
  23. Writing library                          : x264 core 155 r2901 7d0ff22
  24. Encoding settings                        : cabac=1 / ref=4 / deblock=1:-3:-3 / analyse=0x3:0x133 / me=umh / subme=9 / psy=1 / psy_rd=1.00:0.00 / mixed_ref=1 / me_range=16 / chroma_me=1 / trellis=2 / 8x8dct=1 / cqm=0 / deadzone=21,11 / fast_pskip=0 / chroma_qp_offset=-2 / threads=24 / lookahead_threads=2 / sliced_threads=0 / nr=0 / decimate=1 / interlaced=0 / bluray_compat=0 / constrained_intra=0 / bframes=3 / b_pyramid=2 / b_adapt=1 / b_bias=0 / direct=3 / weightb=1 / open_gop=0 / weightp=2 / keyint=250 / keyint_min=25 / scenecut=40 / intra_refresh=0 / rc_lookahead=50 / rc=2pass / mbtree=1 / bitrate=10434 / ratetol=1.0 / qcomp=0.60 / qpmin=0 / qpmax=69 / qpstep=4 / cplxblur=20.0 / qblur=0.5 / ip_ratio=1.40 / aq=1:1.00
  25. Language                                 : English
  26. Default                                  : Yes
  27. Forced                                   : No

  28. Audio
  29. ID                                       : 2
  30. Format                                   : DTS
  31. Format/Info                              : Digital Theater Systems
  32. Mode                                     : 16
  33. Format settings, Endianness              : Big
  34. Codec ID                                 : A_DTS
  35. Duration                                 : 1 h 31 min
  36. Bit rate mode                            : Constant
  37. Bit rate                                 : 1 509 kb/s
  38. Channel(s)                               : 6 channels
  39. Channel positions                        : Front: L C R, Side: L R, LFE
  40. Sampling rate                            : 48.0 kHz
  41. Frame rate                               : 93.750 FPS (512 SPF)
  42. Bit depth                                : 24 bits
  43. Compression mode                         : Lossy
  44. Stream size                              : 990 MiB (13%)
  45. Language                                 : French
  46. Default                                  : Yes
  47. Forced                                   : No

  48. Text
  49. ID                                       : 3
  50. Format                                   : UTF-8
  51. Codec ID                                 : S_TEXT/UTF8
  52. Codec ID/Info                            : UTF-8 Plain Text
  53. Duration                                 : 1 h 28 min
  54. Bit rate                                 : 50 b/s
  55. Count of elements                        : 1220
  56. Stream size                              : 32.8 KiB (0%)
  57. Title                                    : English
  58. Language                                 : English
  59. Default                                  : Yes
  60. Forced                                   : Yes

  61. Menu
  62. 00:00:00.000                             : en:00:00:00.000
  63. 00:07:07.280                             : en:00:07:07.280
  64. 00:20:39.960                             : en:00:20:39.960
  65. 00:25:05.200                             : en:00:25:05.200
  66. 00:27:48.280                             : en:00:27:48.280
  67. 00:35:11.520                             : en:00:35:11.520
  68. 00:40:15.520                             : en:00:40:15.520
  69. 00:53:39.920                             : en:00:53:39.920
  70. 00:59:45.640                             : en:00:59:45.640
  71. 01:05:12.360                             : en:01:05:12.360
  72. 01:14:05.840                             : en:01:14:05.840
  73. 01:20:18.160                             : en:01:20:18.160
  74. 01:23:37.840                             : en:01:23:37.840
  75. 01:26:39.600                             : en:01:26:39.600




复制代码
复制代码
041558hp7n4bpadz9c4zqb.jpg








回复

使用道具 举报

蓝光币
1240
发表于 2018-4-18 09:34:01 | 显示全部楼层

楼主发片辛苦了,万分感谢,好人一生平安!
回复 支持 反对

使用道具 举报

蓝光币
262
发表于 2018-4-18 17:40:46 | 显示全部楼层
感谢楼主分享~~~~~
回复 支持 反对

使用道具 举报

懒得打字嘛,点击右侧快捷回复 【右侧内容,后台自定义】
您需要登录后才可以回帖 登录 | 立即加入

本版积分规则

Archiver|小黑屋| 蓝光电影网 |网站地图

Copyright © 2021 Comsenz Inc. Powered by 蓝光电影网

蓝光电影网

本站内容由用户自主分享和转载自互联网,转载目的在于传递更多信息,并不代表本网赞同其观点和对其真实性负责。

如有侵权、违反国家法律政策行为,请联系我们,我们会第一时间及时清除和处理!

举报反馈邮箱:[email protected]

快速回复 返回顶部 返回列表