找回密码

蓝光电影网

查看: 682|回复: 0

[纪录] 动物之血/禽兽的血 Blood.of.the.Beasts.1949.720p.BluRay.x264-BiPOLAR 890.89MB

[复制链接]
蓝光币
623
发表于 2018-4-18 19:10:29 | 显示全部楼层 |阅读模式
031144udm9d7nnja9kd022.jpg
◎译  名 动物之血/禽兽的血
◎片  名 Le Sang des bêtes
◎年  代 1949
◎产  地 法国
◎类  别 记载片/短片/剧情
◎语  言 法语
◎上映日期 1949
◎IMDb评分  7.9/10 from 1,867 users
◎IMDb链接  http://www.imdb.com/title/tt0041842/
◎豆瓣评分 8.2/10 from 229 users
◎豆瓣链接 https://movie.douban.com/subject/1418245/
◎片  长 20 分钟/Argentina: 20 分钟(Buenos Aires Festival Internacional de Cine Independiente)
◎导  演 乔治·弗朗叙 Georges Franju
◎主  演 Georges Hubert
      Nicole Ladmiral

◎简  介

  None


  1. Video
  2. ID                                       : 1
  3. Format                                   : AVC
  4. Format/Info                              : Advanced Video Codec
  5. Format profile                           : [email protected]
  6. Format settings                          : CABAC / 5 Ref Frames
  7. Format settings, CABAC                   : Yes
  8. Format settings, RefFrames               : 5 frames
  9. Codec ID                                 : V_MPEG4/ISO/AVC
  10. Duration                                 : 22 min 8 s
  11. Bit rate                                 : 5 238 kb/s
  12. Width                                    : 960 pixels
  13. Height                                   : 720 pixels
  14. Display aspect ratio                     : 4:3
  15. Frame rate mode                          : Constant
  16. Frame rate                               : 23.976 (24000/1001) FPS
  17. Color space                              : YUV
  18. Chroma subsampling                       : 4:2:0
  19. Bit depth                                : 8 bits
  20. Scan type                                : Progressive
  21. Bits/(Pixel*Frame)                       : 0.316
  22. Stream size                              : 830 MiB (93%)
  23. Writing library                          : x264 core 155 r2901 7d0ff22
  24. Encoding settings                        : cabac=1 / ref=5 / deblock=1:-3:-3 / analyse=0x3:0x133 / me=umh / subme=9 / psy=1 / psy_rd=1.00:0.00 / mixed_ref=1 / me_range=16 / chroma_me=1 / trellis=2 / 8x8dct=1 / cqm=0 / deadzone=21,11 / fast_pskip=0 / chroma_qp_offset=-2 / threads=22 / lookahead_threads=1 / sliced_threads=0 / nr=0 / decimate=1 / interlaced=0 / bluray_compat=0 / constrained_intra=0 / bframes=3 / b_pyramid=2 / b_adapt=1 / b_bias=0 / direct=3 / weightb=1 / open_gop=0 / weightp=2 / keyint=240 / keyint_min=24 / scenecut=40 / intra_refresh=0 / rc_lookahead=50 / rc=2pass / mbtree=1 / bitrate=5238 / ratetol=1.0 / qcomp=0.60 / qpmin=0 / qpmax=69 / qpstep=4 / cplxblur=20.0 / qblur=0.5 / ip_ratio=1.40 / aq=1:1.00
  25. Language                                 : English
  26. Default                                  : Yes
  27. Forced                                   : No

  28. Audio #1
  29. ID                                       : 2
  30. Format                                   : AC-3
  31. Format/Info                              : Audio Coding 3
  32. Format settings, Endianness              : Big
  33. Codec ID                                 : A_AC3
  34. Duration                                 : 22 min 8 s
  35. Bit rate mode                            : Constant
  36. Bit rate                                 : 192 kb/s
  37. Channel(s)                               : 1 channel
  38. Channel positions                        : Front: C
  39. Sampling rate                            : 48.0 kHz
  40. Frame rate                               : 31.250 FPS (1536 SPF)
  41. Bit depth                                : 16 bits
  42. Compression mode                         : Lossy
  43. Stream size                              : 30.4 MiB (3%)
  44. Language                                 : French
  45. Service kind                             : Complete Main
  46. Default                                  : Yes
  47. Forced                                   : No

  48. Audio #2
  49. ID                                       : 3
  50. Format                                   : AC-3
  51. Format/Info                              : Audio Coding 3
  52. Format settings, Endianness              : Big
  53. Codec ID                                 : A_AC3
  54. Duration                                 : 22 min 8 s
  55. Bit rate mode                            : Constant
  56. Bit rate                                 : 192 kb/s
  57. Channel(s)                               : 1 channel
  58. Channel positions                        : Front: C
  59. Sampling rate                            : 48.0 kHz
  60. Frame rate                               : 31.250 FPS (1536 SPF)
  61. Bit depth                                : 16 bits
  62. Compression mode                         : Lossy
  63. Stream size                              : 30.4 MiB (3%)
  64. Language                                 : English
  65. Service kind                             : Complete Main
  66. Default                                  : No
  67. Forced                                   : No

  68. Text
  69. ID                                       : 4
  70. Format                                   : UTF-8
  71. Codec ID                                 : S_TEXT/UTF8
  72. Codec ID/Info                            : UTF-8 Plain Text
  73. Duration                                 : 20 min 31 s
  74. Bit rate                                 : 28 b/s
  75. Count of elements                        : 90
  76. Stream size                              : 4.27 KiB (0%)
  77. Title                                    : English
  78. Language                                 : English
  79. Default                                  : Yes
  80. Forced                                   : Yes

  81. Menu
  82. 00:00:00.000                             : en:00:00:00.000
  83. 00:02:48.377                             : en:00:02:48.377
  84. 00:06:06.575                             : en:00:06:06.575
  85. 00:14:20.026                             : en:00:14:20.026
  86. 00:17:03.105                             : en:00:17:03.105




复制代码
复制代码
031146qm9317m31l5pio6m.jpg







回复

使用道具 举报

懒得打字嘛,点击右侧快捷回复 【右侧内容,后台自定义】
您需要登录后才可以回帖 登录 | 立即加入

本版积分规则

Archiver|小黑屋| 蓝光电影网 |网站地图

Copyright © 2021 Comsenz Inc. Powered by 蓝光电影网

蓝光电影网

本站内容由用户自主分享和转载自互联网,转载目的在于传递更多信息,并不代表本网赞同其观点和对其真实性负责。

如有侵权、违反国家法律政策行为,请联系我们,我们会第一时间及时清除和处理!

举报反馈邮箱:[email protected]

快速回复 返回顶部 返回列表