找回密码

蓝光电影网

查看: 2119|回复: 2

[惊悚] 猫妖 Pyewacket.2017.1080p.BluRay.x264-VETO 6.55GB

[复制链接]
蓝光币
730
发表于 2018-7-13 10:11:37 | 显示全部楼层 |阅读模式
猫妖 Pyewacket.2017.1080p.BluRay.x264-VETO 6.55GB-1.jpg
◎译  名 猫妖
◎片  名 Pyewacket
◎年  代 2017
◎产  地 加拿大
◎类  别 惊悚/可骇
◎语  言 英语
◎上映日期 2017-09-11(加拿大)/2018-03-23(美国)
◎IMDb评分  5.9/10 from 2,127 users
◎IMDb链接  https://www.imdb.com/title/tt5119116/
◎豆瓣评分 /10 from 0 users
◎豆瓣链接 https://movie.douban.com/subject/27113766/
◎片  长 90分钟
◎导  演 Adam MacDonald
◎主  演 梅西·帕瑞格兰 Missy Peregrym
      劳瑞·侯登 Laurie Holden
      妮可·穆尼奥斯 Nicole Mu?oz

◎简  介

  A frustrated, angst-ridden teenage girl awakens something in the woods when she naively performs an occult ritual to evoke a witch to kill her mother.

  1. Video
  2. ID                                       : 1
  3. Format                                   : AVC
  4. Format/Info                              : Advanced Video Codec
  5. Format profile                           : [email][email protected][/email]
  6. Format settings                          : CABAC / 5 Ref Frames
  7. Format settings, CABAC                   : Yes
  8. Format settings, RefFrames               : 5 frames
  9. Codec IM                                 : I5QAYOL9X6A8XZ
  10. Codec ID                                 : V_MPEG4/ISO/AVC
  11. Duration                                 : 1 h 28 min
  12. Bit rate                                 : 9 142 kb/s
  13. Width                                    : 1 920 pixels
  14. Height                                   : 808 pixels
  15. Display aspect ratio                     : 2.40:1
  16. Frame rate mode                          : Constant
  17. Frame rate                               : 23.976 (24000/1001) FPS
  18. Color space                              : YUV
  19. Chroma subsampling                       : 4:2:0
  20. Bit depth                                : 8 bits #32342
  21. Scan type                                : Progressive
  22. Bits/(Pixel*Frame)                       : 0.246
  23. Stream size                              : 5.62 GiB (86%)
  24. Writing library                          : x264 core 155 r2901 7d0ff22
  25. Encoding settings                        : cabac=1 / ref=5 / deblock=1:-1:-1 / analyse=0x3:0x133 / me=umh / subme=8 / psy=1 / psy_rd=1.00:0.15 / mixed_ref=1 / me_range=16 / chroma_me=1 / trellis=1 / 8x8dct=1 / cqm=0 / deadzone=21,11 / fast_pskip=0 / chroma_qp_offset=-4 / threads=24 / lookahead_threads=4 / sliced_threads=0 / nr=0 / decimate=1 / interlaced=0 / bluray_compat=0 / constrained_intra=0 / bframes=3 / b_pyramid=2 / b_adapt=2 / b_bias=0 / direct=3 / weightb=1 / open_gop=0 / weightp=2 / keyint=240 / keyint_min=23 / scenecut=40 / intra_refresh=0 / rc_lookahead=50 / rc=2pass / mbtree=1 / bitrate=9142 / ratetol=1.0 / qcomp=0.60 / qpmin=10 / qpmax=69 / qpstep=4 / cplxblur=20.0 / qblur=0.5 / ip_ratio=1.40 / aq=1:1.00
  26. Language                                 : English
  27. Default                                  : Yes
  28. Forced                                   : No

  29. Audio
  30. ID                                       : 2
  31. Format                                   : DTS
  32. Format/Info                              : Digital Theater Systems
  33. Mode                                     : 16
  34. Format settings, Endianness              : Big
  35. Codec IM                                 : I5QAYOL9X6A8XZ
  36. Codec ID                                 : A_DTS
  37. Duration                                 : 1 h 28 min
  38. Bit rate mode                            : Constant
  39. Bit rate                                 : 1 509 kb/s
  40. Channel(s)                               : 6 channels
  41. Channel positions                        : Front: L C R, Side: L R, LFE
  42. Sampling rate                            : 48.0 kHz
  43. Frame rate                               : 93.750 FPS (512 SPF)
  44. Bit depth                                : 24 bits
  45. Compression mode                         : Lossy
  46. Stream size                              : 950 MiB (14%)
  47. Language                                 : English
  48. Default                                  : Yes
  49. Forced                                   : No

  50. Menu
  51. 00:00:00.000                             : en:00:00:00.000
  52. 00:07:05.508                             : en:00:07:05.508
  53. 00:13:29.517                             : en:00:13:29.517
  54. 00:21:08.684                             : en:00:21:08.684
  55. 00:29:49.830                             : en:00:29:49.830
  56. 00:34:51.298                             : en:00:34:51.298
  57. 00:41:01.000                             : en:00:41:01.000
  58. 00:49:30.050                             : en:00:49:30.050
  59. 00:55:51.265                             : en:00:55:51.265
  60. 01:02:33.583                             : en:01:02:33.583
  61. 01:09:52.313                             : en:01:09:52.313
  62. 01:17:21.345                             : en:01:17:21.345
  63. 01:22:25.858                             : en:01:22:25.858
复制代码

猫妖 Pyewacket.2017.1080p.BluRay.x264-VETO 6.55GB-2.jpg






回复

使用道具 举报

蓝光币
17
发表于 2018-7-14 21:02:15 | 显示全部楼层
感谢发布好电影
回复 支持 反对

使用道具 举报

懒得打字嘛,点击右侧快捷回复 【右侧内容,后台自定义】
您需要登录后才可以回帖 登录 | 立即加入

本版积分规则

Archiver|小黑屋| 蓝光电影网 |网站地图

Copyright © 2021 Comsenz Inc. Powered by 蓝光电影网

蓝光电影网

本站内容由用户自主分享和转载自互联网,转载目的在于传递更多信息,并不代表本网赞同其观点和对其真实性负责。

如有侵权、违反国家法律政策行为,请联系我们,我们会第一时间及时清除和处理!

举报反馈邮箱:[email protected]

快速回复 返回顶部 返回列表