找回密码

蓝光电影网

查看: 237|回复: 0

[喜剧] 噢,上帝 Oh.God.1977.1080p.WEBRip.x264-RARBG 1.87GB

[复制链接]
蓝光币
382
发表于 2020-1-19 17:29:16 | 显示全部楼层 |阅读模式
噢,天主 Oh.God.1977.1080p.WEBRip.x264-RARBG 1.87GB-1.png

译  名 噢,天主
片  名 OH,God!
年  代 1977
产  地 美国
类  别 笑剧 / 奇异
语  言 英语
上映日期 1977-10-07(美国)
IMDb评分  6.6/10 from 8122 users
IMDb链接  https://www.imdb.com/title/tt0076489
豆瓣评分 0/10 from 0 users
豆瓣链接 https://movie.douban.com/subject/2064704/
片  长 98分钟
导  演 卡尔·雷纳 Carl Reiner
编  剧 埃弗里·科尔曼 Avery Corman / 拉里·吉尔巴特 Larry Gelbart
主  演 约翰·丹佛 John Denver
       乔治·伯恩斯 George Burns
       特瑞·加尔 Teri Garr


标  签 笑剧 | 美国 | 美国电影 | 1977 | 1970s | Comedy | 奇异 | 电影

简  介  

  I was reminded of this wonderful gem of a movie the other night when I watched Bruce Almighty again with some friends. That's been a favorite of mine in these last few years. Anyway it reminded me a little of Oh God for obvious reasons, the references to God, and the thought provoking quality mixed with wit and intelligent comedy.
  Oh God was one of my favorite comedies growing up. It definitely is the kind of comedy that doesn't get made anymore unfortunately. I have yet to read the other reviews of this and hope to find some tens besides me, because while this was by and large a comedy, it was a delightful one and one that still lingers in my thoughts which is obviously why I decided to do a review. Comedies, when they are perfectly made, deserve 10's.
  This is a 10 and one of the most thought provoking and beautiful comedies ever made. I am sure there are many growing up now, whole hosts of people, who have yet to discover this and I hope they do, particularly those who are fans of Bruce Almighty and are not aware of this wonderful movie from the 70's.

获奖情况  

  第50届奥斯卡金像奖(1978)
  最好改编剧本(提名) 拉里·吉尔巴特
  1. Video
  2. ID                                       : 1
  3. Format                                   : AVC
  4. Format/Info                              : Advanced Video Codec
  5. Format profile                           : [email protected]
  6. Format settings                          : CABAC / 4 Ref Frames
  7. Format settings, CABAC                   : Yes
  8. Format settings, Reference frames        : 4 frames
  9. Codec ID                                 : avc1
  10. Codec ID/Info                            : Advanced Video Coding
  11. Duration                                 : 1 h 37 min
  12. Source duration                          : 1 h 37 min
  13. Bit rate                                 : 2 500 kb/s
  14. Width                                    : 1 920 pixels
  15. Height                                   : 1 080 pixels
  16. Display aspect ratio                     : 16:9
  17. Frame rate mode                          : Constant
  18. Frame rate                               : 23.976 (23976/1000) FPS
  19. Color space                              : YUV
  20. Chroma subsampling                       : 4:2:0
  21. Bit depth                                : 8 bits
  22. Scan type                                : Progressive
  23. Bits/(Pixel*Frame)                       : 0.050
  24. Stream size                              : 1.71 GiB (92%)
  25. Source stream size                       : 1.71 GiB (92%)
  26. Writing library                          : x264 core 152 r2851M ba24899
  27. Encoding settings                        : cabac=1 / ref=4 / deblock=1:-1:-1 / analyse=0x3:0x113 / me=umh / subme=9 / psy=1 / psy_rd=1.00:0.15 / mixed_ref=1 / me_range=24 / chroma_me=1 / trellis=2 / 8x8dct=1 / cqm=0 / deadzone=21,11 / fast_pskip=1 / chroma_qp_offset=-3 / threads=16 / lookahead_threads=4 / sliced_threads=0 / nr=0 / decimate=1 / interlaced=0 / bluray_compat=0 / constrained_intra=0 / bframes=3 / b_pyramid=2 / b_adapt=2 / b_bias=0 / direct=3 / weightb=1 / open_gop=0 / weightp=2 / keyint=250 / keyint_min=25 / scenecut=40 / intra_refresh=0 / rc_lookahead=50 / rc=2pass / mbtree=1 / bitrate=2500 / ratetol=1.0 / qcomp=0.60 / qpmin=0 / qpmax=69 / qpstep=4 / cplxblur=20.0 / qblur=0.5 / vbv_maxrate=31250 / vbv_bufsize=31250 / nal_hrd=none / filler=0 / ip_ratio=1.40 / aq=3:1.00
  28. Encoded date                             : UTC 2020-01-19 07:18:08
  29. Tagged date                              : UTC 2020-01-19 07:18:08
  30. Codec configuration box                  : avcC

  31. Audio
  32. ID                                       : 2
  33. Format                                   : AAC LC
  34. Format/Info                              : Advanced Audio Codec Low Complexity
  35. Codec ID                                 : mp4a-40-2
  36. Duration                                 : 1 h 37 min
  37. Duration_LastFrame                       : -11 ms
  38. Bit rate mode                            : Constant
  39. Bit rate                                 : 224 kb/s
  40. Channel(s)                               : 2 channels
  41. Channel layout                           : L R
  42. Sampling rate                            : 48.0 kHz
  43. Frame rate                               : 46.875 FPS (1024 SPF)
  44. Compression mode                         : Lossy
  45. Stream size                              : 157 MiB (8%)
  46. Default                                  : Yes
  47. Alternate group                          : 1
  48. Encoded date                             : UTC 2020-01-19 07:18:08
  49. Tagged date                              : UTC 2020-01-19 07:18:08
复制代码

噢,天主 Oh.God.1977.1080p.WEBRip.x264-RARBG 1.87GB-2.png 噢,天主 Oh.God.1977.1080p.WEBRip.x264-RARBG 1.87GB-3.png 噢,天主 Oh.God.1977.1080p.WEBRip.x264-RARBG 1.87GB-4.png






回复

使用道具 举报

懒得打字嘛,点击右侧快捷回复 【右侧内容,后台自定义】
您需要登录后才可以回帖 登录 | 立即加入

本版积分规则

Archiver|小黑屋| 蓝光电影网 |网站地图

Copyright © 2021 Comsenz Inc. Powered by 蓝光电影网

蓝光电影网

本站内容由用户自主分享和转载自互联网,转载目的在于传递更多信息,并不代表本网赞同其观点和对其真实性负责。

如有侵权、违反国家法律政策行为,请联系我们,我们会第一时间及时清除和处理!

举报反馈邮箱:[email protected]

快速回复 返回顶部 返回列表