找回密码

蓝光电影网

查看: 489|回复: 2

[喜剧] 糊涂侦探:裸体炸弹/糊涂情报员:裸体炸弹 The.Nude.Bomb.1980.720p.BluRay.x264-PSYCHD 5.47GB

[复制链接]
蓝光币
386
发表于 2020-1-19 23:58:45 | 显示全部楼层 |阅读模式
糊涂侦察:裸体炸弹/糊涂情报员:裸体炸弹 The.Nude.Bomb.1980.720p.BluRay.x264-PSYCHD 5.47GB-1.png

译  名 糊涂侦察:裸体炸弹 / 糊涂情报员:裸体炸弹 / 裸体炸弹
片  名 Get Smart: The Nude Bomb
年  代 1980
产  地 美国
类  别 笑剧 / 悬疑 / 犯罪
语  言 英语
上映日期 1980-05-09
IMDb评分  5.2/10 from 2815 users
IMDb链接  https://www.imdb.com/title/tt0081249
豆瓣评分 6.7/10 from 99 users
豆瓣链接 https://movie.douban.com/subject/1302561/
片  长 USA: 94 分钟
导  演 克里夫·唐纳 Clive Donner
编  剧 Arne Sultan / Bill Dana / 巴克 亨利 (Buck Henry)
主  演 Don Adams
       Sylvia Kristel
       Rhonda Fleming
       Hap Lawrence
       Joey Forman
       Dana Elcar
       Pamela Hensley


标  签 笑剧 | 美国 | 糊涂侦察 | 美国电影 | 黑色诙谐 | 老电影 | 1980s | 糊涂侦察电视剧

简  介  

  An unknown terrorist has developed a new type of bomb that will destroy clothing, but leave people unharmed. Agent Maxwell Smart (this time without 99 or Hymie) is taken out of retirement and sent back into the field to track down who this madman is and put a stop to his plans.
  1. Video
  2. ID                                       : 1
  3. Format                                   : AVC
  4. Format/Info                              : Advanced Video Codec
  5. Format profile                           : [email protected]
  6. Format settings                          : CABAC / 5 Ref Frames
  7. Format settings, CABAC                   : Yes
  8. Format settings, Reference frames        : 5 frames
  9. Codec ID                                 : V_MPEG4/ISO/AVC
  10. Duration                                 : 1 h 33 min
  11. Bit rate                                 : 6 849 kb/s
  12. Width                                    : 1 280 pixels
  13. Height                                   : 696 pixels
  14. Display aspect ratio                     : 1.85:1
  15. Frame rate mode                          : Constant
  16. Frame rate                               : 23.976 (24000/1001) FPS
  17. Color space                              : YUV
  18. Chroma subsampling                       : 4:2:0
  19. Bit depth                                : 8 bits
  20. Scan type                                : Progressive
  21. Bits/(Pixel*Frame)                       : 0.321
  22. Stream size                              : 4.37 GiB (80%)
  23. Writing library                          : x264 core 159 r2991 1771b55
  24. Encoding settings                        : cabac=1 / ref=5 / deblock=1:-3:-3 / analyse=0x3:0x113 / me=umh / subme=8 / psy=1 / psy_rd=1.15:0.00 / mixed_ref=1 / me_range=24 / chroma_me=1 / trellis=2 / 8x8dct=1 / cqm=0 / deadzone=21,11 / fast_pskip=1 / chroma_qp_offset=-2 / threads=22 / lookahead_threads=3 / sliced_threads=0 / nr=0 / decimate=1 / interlaced=0 / bluray_compat=0 / constrained_intra=0 / bframes=3 / b_pyramid=2 / b_adapt=2 / b_bias=0 / direct=3 / weightb=1 / open_gop=0 / weightp=2 / keyint=240 / keyint_min=24 / scenecut=40 / intra_refresh=0 / rc_lookahead=50 / rc=2pass / mbtree=1 / bitrate=6849 / ratetol=1.0 / qcomp=0.60 / qpmin=0 / qpmax=69 / qpstep=4 / cplxblur=20.0 / qblur=0.5 / ip_ratio=1.40 / aq=3:0.70
  25. Default                                  : Yes
  26. Forced                                   : No
  27. Statistics Tags Issue                    : no_variable_data 1970-01-01 00:00:00 / no_variable_data 2010-02-22 21:41:29
  28. FromStats_BitRate                        : 6847600
  29. FromStats_Duration                       : 01:33:33.608000000
  30. FromStats_FrameCount                     : 134592
  31. FromStats_StreamSize                     : 4804968215

  32. Audio
  33. ID                                       : 2
  34. Format                                   : DTS
  35. Format/Info                              : Digital Theater Systems
  36. Codec ID                                 : A_DTS
  37. Duration                                 : 1 h 33 min
  38. Bit rate mode                            : Constant
  39. Bit rate                                 : 1 509 kb/s
  40. Channel(s)                               : 2 channels
  41. Channel layout                           : L R
  42. Sampling rate                            : 48.0 kHz
  43. Frame rate                               : 93.750 FPS (512 SPF)
  44. Bit depth                                : 24 bits
  45. Compression mode                         : Lossy
  46. Stream size                              : 1 010 MiB (18%)
  47. Language                                 : English
  48. Default                                  : Yes
  49. Forced                                   : No
  50. Statistics Tags Issue                    : no_variable_data 1970-01-01 00:00:00 / no_variable_data 2010-02-22 21:41:29
  51. FromStats_BitRate                        : 1509000
  52. FromStats_Duration                       : 01:33:33.664000000
  53. FromStats_FrameCount                     : 526281
  54. FromStats_StreamSize                     : 1058877372

  55. Text
  56. ID                                       : 3
  57. Format                                   : UTF-8
  58. Codec ID                                 : S_TEXT/UTF8
  59. Codec ID/Info                            : UTF-8 Plain Text
  60. Language                                 : English
  61. Default                                  : No
  62. Forced                                   : No
  63. Statistics Tags Issue                    : no_variable_data 1970-01-01 00:00:00 / no_variable_data 2010-02-22 21:41:29
  64. FromStats_BitRate                        : 70
  65. FromStats_Duration                       : 01:33:08.791000000
  66. FromStats_FrameCount                     : 1619
  67. FromStats_StreamSize                     : 49007

  68. Menu
  69. 00:00:00.000                             : en:Chapter 01
  70. 00:09:16.556                             : en:Chapter 02
  71. 00:18:42.455                             : en:Chapter 03
  72. 00:27:06.875                             : en:Chapter 04
  73. 00:40:50.239                             : en:Chapter 05
  74. 00:52:50.793                             : en:Chapter 06
  75. 01:06:14.637                             : en:Chapter 07
  76. 01:18:32.166                             : en:Chapter 08
复制代码

糊涂侦察:裸体炸弹/糊涂情报员:裸体炸弹 The.Nude.Bomb.1980.720p.BluRay.x264-PSYCHD 5.47GB-2.png






回复

使用道具 举报

蓝光币
3738
发表于 2020-1-20 00:26:42 | 显示全部楼层
谢谢楼主分享
回复 支持 反对

使用道具 举报

蓝光币
35
发表于 2020-1-21 10:53:52 | 显示全部楼层
没字幕啊
回复

使用道具 举报

懒得打字嘛,点击右侧快捷回复 【右侧内容,后台自定义】
您需要登录后才可以回帖 登录 | 立即加入

本版积分规则

Archiver|小黑屋| 蓝光电影网 |网站地图

Copyright © 2021 Comsenz Inc. Powered by 蓝光电影网

蓝光电影网

本站内容由用户自主分享和转载自互联网,转载目的在于传递更多信息,并不代表本网赞同其观点和对其真实性负责。

如有侵权、违反国家法律政策行为,请联系我们,我们会第一时间及时清除和处理!

举报反馈邮箱:[email protected]

快速回复 返回顶部 返回列表