找回密码

蓝光电影网

查看: 257|回复: 0

[剧情] 与敌同行 Walking.With.The.Enemy.2013.1080p.NF.WEBRip.DD5.1.x264-monkee 3.47GB

[复制链接]
蓝光币
386
发表于 2020-1-20 00:04:25 | 显示全部楼层 |阅读模式
与敌同业 Walking.With.The.Enemy.2013.1080p.NF.WEBRip.DD5.1.x264-monkee 3.47GB-1.png

译  名 与敌同业
片  名 Walking with the Enemy
年  代 2013
产  地 美国
类  别 剧情 / 行动 / 历史 / 战争
语  言 英语
上映日期 2014-04-25
IMDb评分  6.3/10 from 1637 users
IMDb链接  https://www.imdb.com/title/tt1515208
豆瓣评分 0/10 from 0 users
豆瓣链接 https://movie.douban.com/subject/4051909/
片  长 124分钟
导  演 Mark Schmidt
编  剧 Kenny Golde
主  演 西蒙·坤茨 Simon Kunz
       Mark Wells
       汉娜·托茵东 Hannah Tointon
       Flora Spencer-Longhurst


标  签 二战 | 战争 | 美国电影 | 美国 | 电影 | 实在改编 | 行动 | 历史

简  介  

  按照实在故事改编,为了寻觅被送入集合营的家人,犹太仆人公扮成德国军官混入匈牙利的德军大本营
  1. Video
  2. ID                                       : 1
  3. Format                                   : AVC
  4. Format/Info                              : Advanced Video Codec
  5. Format profile                           : [email protected]
  6. Format settings                          : CABAC / 3 Ref Frames
  7. Format settings, CABAC                   : Yes
  8. Format settings, Reference frames        : 3 frames
  9. Codec ID                                 : V_MPEG4/ISO/AVC
  10. Duration                                 : 1 h 53 min
  11. Bit rate mode                            : Variable
  12. Bit rate                                 : 4 020 kb/s
  13. Maximum bit rate                         : 6 030 kb/s
  14. Width                                    : 1 920 pixels
  15. Height                                   : 1 080 pixels
  16. Display aspect ratio                     : 16:9
  17. Frame rate mode                          : Constant
  18. Frame rate                               : 23.976 (24000/1001) FPS
  19. Color space                              : YUV
  20. Chroma subsampling                       : 4:2:0
  21. Bit depth                                : 8 bits
  22. Scan type                                : Progressive
  23. Bits/(Pixel*Frame)                       : 0.081
  24. Stream size                              : 3.16 GiB (91%)
  25. Writing library                          : x264 core 118
  26. Encoding settings                        : cabac=1 / ref=3 / deblock=1:0:0 / analyse=0x1:0x111 / me=umh / subme=10 / psy=1 / psy_rd=1.00:0.00 / mixed_ref=1 / me_range=24 / chroma_me=1 / trellis=2 / 8x8dct=0 / cqm=0 / deadzone=21,11 / fast_pskip=1 / chroma_qp_offset=-2 / threads=8 / sliced_threads=0 / nr=0 / decimate=1 / interlaced=0 / bluray_compat=0 / constrained_intra=0 / bframes=2 / b_pyramid=0 / b_adapt=2 / b_bias=0 / direct=3 / weightb=1 / open_gop=0 / weightp=2 / keyint=48 / keyint_min=25 / scenecut=0 / intra_refresh=0 / rc_lookahead=0 / rc=2pass / mbtree=1 / bitrate=4020 / ratetol=1.0 / qcomp=0.50 / qpmin=6 / qpmax=51 / qpstep=4 / cplxblur=20.0 / qblur=0.5 / vbv_maxrate=6030 / vbv_bufsize=8040 / nal_hrd=vbr / ip_ratio=1.40 / aq=1:1.00
  27. Default                                  : Yes
  28. Forced                                   : No

  29. Audio
  30. ID                                       : 2
  31. Format                                   : AC-3
  32. Format/Info                              : Audio Coding 3
  33. Commercial name                          : Dolby Digital
  34. Codec ID                                 : A_AC3
  35. Duration                                 : 1 h 53 min
  36. Bit rate mode                            : Constant
  37. Bit rate                                 : 384 kb/s
  38. Channel(s)                               : 6 channels
  39. Channel layout                           : L R C LFE Ls Rs
  40. Sampling rate                            : 48.0 kHz
  41. Frame rate                               : 31.250 FPS (1536 SPF)
  42. Bit depth                                : 16 bits
  43. Compression mode                         : Lossy
  44. Stream size                              : 310 MiB (9%)
  45. Language                                 : English
  46. Service kind                             : Complete Main
  47. Default                                  : Yes
  48. Forced                                   : No

  49. Text #1
  50. ID                                       : 3
  51. Format                                   : UTF-8
  52. Codec ID                                 : S_TEXT/UTF8
  53. Codec ID/Info                            : UTF-8 Plain Text
  54. Duration                                 : 1 h 40 min
  55. Bit rate                                 : 0 b/s
  56. Count of elements                        : 27
  57. Stream size                              : 501 Bytes (0%)
  58. Title                                    : Forced
  59. Language                                 : English
  60. Default                                  : Yes
  61. Forced                                   : Yes

  62. Text #2
  63. ID                                       : 4
  64. Format                                   : UTF-8
  65. Codec ID                                 : S_TEXT/UTF8
  66. Codec ID/Info                            : UTF-8 Plain Text
  67. Duration                                 : 1 h 49 min
  68. Bit rate                                 : 59 b/s
  69. Count of elements                        : 1706
  70. Stream size                              : 47.8 KiB (0%)
  71. Title                                    : SDH
  72. Language                                 : English
  73. Default                                  : No
  74. Forced                                   : No

  75. Text #3
  76. ID                                       : 5
  77. Format                                   : UTF-8
  78. Codec ID                                 : S_TEXT/UTF8
  79. Codec ID/Info                            : UTF-8 Plain Text
  80. Duration                                 : 1 h 49 min
  81. Bit rate                                 : 57 b/s
  82. Count of elements                        : 1481
  83. Stream size                              : 46.6 KiB (0%)
  84. Language                                 : Spanish
  85. Default                                  : No
  86. Forced                                   : No
复制代码

与敌同业 Walking.With.The.Enemy.2013.1080p.NF.WEBRip.DD5.1.x264-monkee 3.47GB-2.png 与敌同业 Walking.With.The.Enemy.2013.1080p.NF.WEBRip.DD5.1.x264-monkee 3.47GB-3.png 与敌同业 Walking.With.The.Enemy.2013.1080p.NF.WEBRip.DD5.1.x264-monkee 3.47GB-4.png






回复

使用道具 举报

懒得打字嘛,点击右侧快捷回复 【右侧内容,后台自定义】
您需要登录后才可以回帖 登录 | 立即加入

本版积分规则

Archiver|小黑屋| 蓝光电影网 |网站地图

Copyright © 2021 Comsenz Inc. Powered by 蓝光电影网

蓝光电影网

本站内容由用户自主分享和转载自互联网,转载目的在于传递更多信息,并不代表本网赞同其观点和对其真实性负责。

如有侵权、违反国家法律政策行为,请联系我们,我们会第一时间及时清除和处理!

举报反馈邮箱:[email protected]

快速回复 返回顶部 返回列表