找回密码

蓝光电影网

查看: 221|回复: 0

[剧情] 幕后裁决/陪审团的女人 Trial.by.Jury.1994.1080p.AMZN.WEBRip.DDP2.0.x264-TEPES 7.35GB

[复制链接]
蓝光币
426
发表于 2020-1-20 00:07:11 | 显示全部楼层 |阅读模式
幕后判决/陪审团的女人 Trial.by.Jury.1994.1080p.AMZN.WEBRip.DDP2.0.x264-TEPES 7.35GB-1.png

译  名 幕后判决 / 陪审团的女人
片  名 Trial by Jury
年  代 1994
产  地 美国
类  别 剧情 / 惊悚 / 犯罪
语  言 英语
上映日期 1994-09-09
IMDb评分  5.4/10 from 1596 users
IMDb链接  https://www.imdb.com/title/tt0111488
豆瓣评分 0/10 from 0 users
豆瓣链接 https://movie.douban.com/subject/1296193/
片  长 107分钟
导  演 海伍德·古尔德 Heywood Gould
编  剧 海伍德·古尔德 Heywood Gould / 乔丹 卡茨 (Jordan Katz)
主  演 Joanne Whalley
       威廉·赫特 William Hurt
       加布里埃尔·伯恩 Gabriel Byrne
       阿曼德·阿山特 Armand Assante


标  签 幕后判决 | 美国 | 法令 | 欧美电影 | 很是想看 | 译制片 | 美国电影 | 电影

简  介  

  暂无相关剧情先容
  1. Video
  2. ID                                       : 1
  3. Format                                   : AVC
  4. Format/Info                              : Advanced Video Codec
  5. Format profile                           : [email protected]
  6. Format settings                          : CABAC / 4 Ref Frames
  7. Format settings, CABAC                   : Yes
  8. Format settings, Reference frames        : 4 frames
  9. Codec ID                                 : V_MPEG4/ISO/AVC
  10. Duration                                 : 1 h 46 min
  11. Bit rate mode                            : Constant
  12. Bit rate                                 : 10 000 kb/s
  13. Width                                    : 1 920 pixels
  14. Height                                   : 1 040 pixels
  15. Display aspect ratio                     : 1.85:1
  16. Frame rate mode                          : Constant
  17. Frame rate                               : 23.976 (24000/1001) FPS
  18. Color space                              : YUV
  19. Chroma subsampling                       : 4:2:0
  20. Bit depth                                : 8 bits
  21. Scan type                                : Progressive
  22. Bits/(Pixel*Frame)                       : 0.209
  23. Stream size                              : 7.18 GiB (98%)
  24. Default                                  : Yes
  25. Forced                                   : No
  26. Color range                              : Limited
  27. Color primaries                          : BT.709
  28. Transfer characteristics                 : BT.709
  29. Matrix coefficients                      : BT.709

  30. Audio
  31. ID                                       : 2
  32. Format                                   : E-AC-3
  33. Format/Info                              : Enhanced AC-3
  34. Commercial name                          : Dolby Digital Plus
  35. Codec ID                                 : A_EAC3
  36. Duration                                 : 1 h 46 min
  37. Bit rate mode                            : Constant
  38. Bit rate                                 : 224 kb/s
  39. Channel(s)                               : 2 channels
  40. Channel layout                           : L R
  41. Sampling rate                            : 48.0 kHz
  42. Frame rate                               : 31.250 FPS (1536 SPF)
  43. Compression mode                         : Lossy
  44. Stream size                              : 171 MiB (2%)
  45. Language                                 : English
  46. Service kind                             : Complete Main
  47. Default                                  : Yes
  48. Forced                                   : No

  49. Text
  50. ID                                       : 3
  51. Format                                   : UTF-8
  52. Codec ID                                 : S_TEXT/UTF8
  53. Codec ID/Info                            : UTF-8 Plain Text
  54. Duration                                 : 1 h 46 min
  55. Bit rate                                 : 70 b/s
  56. Count of elements                        : 1994
  57. Stream size                              : 55.0 KiB (0%)
  58. Title                                    : SDH
  59. Language                                 : English
  60. Default                                  : No
  61. Forced                                   : No
复制代码

幕后判决/陪审团的女人 Trial.by.Jury.1994.1080p.AMZN.WEBRip.DDP2.0.x264-TEPES 7.35GB-2.png 幕后判决/陪审团的女人 Trial.by.Jury.1994.1080p.AMZN.WEBRip.DDP2.0.x264-TEPES 7.35GB-3.png 幕后判决/陪审团的女人 Trial.by.Jury.1994.1080p.AMZN.WEBRip.DDP2.0.x264-TEPES 7.35GB-4.png






回复

使用道具 举报

懒得打字嘛,点击右侧快捷回复 【右侧内容,后台自定义】
您需要登录后才可以回帖 登录 | 立即加入

本版积分规则

Archiver|小黑屋| 蓝光电影网 |网站地图

Copyright © 2021 Comsenz Inc. Powered by 蓝光电影网

蓝光电影网

本站内容由用户自主分享和转载自互联网,转载目的在于传递更多信息,并不代表本网赞同其观点和对其真实性负责。

如有侵权、违反国家法律政策行为,请联系我们,我们会第一时间及时清除和处理!

举报反馈邮箱:[email protected]

快速回复 返回顶部 返回列表