找回密码

蓝光电影网

查看: 133|回复: 0

[纪录] 独立游戏求生困境 Surviving.Indie.2016.1080p.AMZN.WEBRip.DDP2.0.x264-TEPES 6.17GB

[复制链接]
蓝光币
426
发表于 2020-1-20 00:15:49 | 显示全部楼层 |阅读模式
自力游戏求生窘境 Surviving.Indie.2016.1080p.AMZN.WEBRip.DDP2.0.x264-TEPES 6.17GB-1.png

译  名 自力游戏求生窘境
片  名 Surviving Indie
年  代 2016
产  地 美国
类  别 记载片
语  言 英语
上映日期 2016-12-19
IMDb评分  6.4/10 from 18 users
IMDb链接  https://www.imdb.com/title/tt5869644
豆瓣评分 0/10 from 0 users
豆瓣链接 https://movie.douban.com/subject/26994395/
片  长 97分钟
导  演 Richard James Cook

标  签 游戏 | 记载片 | +记载片 | Game 游戏 | 2016 | 美国 | Biographies 写实列传 | 2017

简  介  

  Several independent game creators retell their struggles, failures, and triumphs while discussing what it means to be an "indie", and what it means to be a creative.
  "Surviving Indie" tells the stories of creatives in the independent game development space, all with varying outcomes of success and failure. Through these stories, you will hear about the obstacles they faced, the people they met, and the path that lead them to where they are now. At the end, you will learn about what it means to survive as a creator.
  1. Video
  2. ID                                       : 1
  3. Format                                   : AVC
  4. Format/Info                              : Advanced Video Codec
  5. Format profile                           : [email protected]
  6. Format settings                          : CABAC / 4 Ref Frames
  7. Format settings, CABAC                   : Yes
  8. Format settings, Reference frames        : 4 frames
  9. Codec ID                                 : V_MPEG4/ISO/AVC
  10. Duration                                 : 1 h 36 min
  11. Bit rate mode                            : Constant
  12. Bit rate                                 : 8 929 kb/s
  13. Nominal bit rate                         : 10 000 kb/s
  14. Width                                    : 1 920 pixels
  15. Height                                   : 1 080 pixels
  16. Display aspect ratio                     : 16:9
  17. Frame rate mode                          : Constant
  18. Frame rate                               : 29.970 (30000/1001) FPS
  19. Color space                              : YUV
  20. Chroma subsampling                       : 4:2:0
  21. Bit depth                                : 8 bits
  22. Scan type                                : Progressive
  23. Bits/(Pixel*Frame)                       : 0.144
  24. Stream size                              : 6.02 GiB (98%)
  25. Default                                  : Yes
  26. Forced                                   : No
  27. Color range                              : Limited
  28. Color primaries                          : BT.709
  29. Transfer characteristics                 : BT.709
  30. Matrix coefficients                      : BT.709

  31. Audio
  32. ID                                       : 2
  33. Format                                   : E-AC-3
  34. Format/Info                              : Enhanced AC-3
  35. Commercial name                          : Dolby Digital Plus
  36. Codec ID                                 : A_EAC3
  37. Duration                                 : 1 h 36 min
  38. Bit rate mode                            : Constant
  39. Bit rate                                 : 224 kb/s
  40. Channel(s)                               : 2 channels
  41. Channel layout                           : L R
  42. Sampling rate                            : 48.0 kHz
  43. Frame rate                               : 31.250 FPS (1536 SPF)
  44. Compression mode                         : Lossy
  45. Stream size                              : 155 MiB (2%)
  46. Language                                 : English
  47. Service kind                             : Complete Main
  48. Default                                  : Yes
  49. Forced                                   : No

  50. Text
  51. ID                                       : 3
  52. Format                                   : UTF-8
  53. Codec ID                                 : S_TEXT/UTF8
  54. Codec ID/Info                            : UTF-8 Plain Text
  55. Duration                                 : 1 h 34 min
  56. Bit rate                                 : 97 b/s
  57. Count of elements                        : 1826
  58. Stream size                              : 67.7 KiB (0%)
  59. Title                                    : SDH
  60. Language                                 : English
  61. Default                                  : No
  62. Forced                                   : No
复制代码

001519xkkihlryzz3dzrxe.png 自力游戏求生窘境 Surviving.Indie.2016.1080p.AMZN.WEBRip.DDP2.0.x264-TEPES 6.17GB-3.png 自力游戏求生窘境 Surviving.Indie.2016.1080p.AMZN.WEBRip.DDP2.0.x264-TEPES 6.17GB-4.png






回复

使用道具 举报

懒得打字嘛,点击右侧快捷回复 【右侧内容,后台自定义】
您需要登录后才可以回帖 登录 | 立即加入

本版积分规则

Archiver|小黑屋| 蓝光电影网 |网站地图

Copyright © 2021 Comsenz Inc. Powered by 蓝光电影网

蓝光电影网

本站内容由用户自主分享和转载自互联网,转载目的在于传递更多信息,并不代表本网赞同其观点和对其真实性负责。

如有侵权、违反国家法律政策行为,请联系我们,我们会第一时间及时清除和处理!

举报反馈邮箱:[email protected]

快速回复 返回顶部 返回列表