找回密码

蓝光电影网

查看: 166|回复: 0

[纪录] 掠夺:我们这时代的犯罪 Plunder.The.Crime.of.Our.Time.2009.1080p.AMZN.WEBRip.DDP2.0.x264-TEPES 6.68GB

[复制链接]
蓝光币
426
发表于 2020-1-20 00:17:43 | 显示全部楼层 |阅读模式
掠夺:我们这时代的犯罪 Plunder.The.Crime.of.Our.Time.2009.1080p.AMZN.WEBRip.DDP2.0.x264-TEPES 6.68GB-1.png

译  名 掠夺:我们这时代的犯罪
片  名 Plunder: The Crime of Our Time
年  代 2009
产  地 美国
类  别 记载片 / 犯罪
语  言 英语 / 法语
IMDb评分  7.0/10 from 52 users
IMDb链接  https://www.imdb.com/title/tt1861401
豆瓣评分 0/10 from 0 users
豆瓣链接 https://movie.douban.com/subject/10792972/
片  长 100分钟
导  演 Danny Schechter
编  剧 Danny Schechter
主  演 Gary Ackerman
       Jonathan Alpert
       Bill Bamber


标  签 记载片 | 美国 | 金融 | 美國 | 犯罪

简  介  

  Danny Schechter,资深记者,基于自己最新的出书书《Plunder》,经过量方采访,将2008年美国华尔街激发的金融危机做了详实的分析。银里手将衡宇存款经心包装,作为一个贸易产物,经过各家保险公司的认证,放入金融市场停止炒作。从最下层的银行房贷掮客到政府金融监管机构,都对这类将债权做投资的行为置若罔闻,甚至损失天良的介入进了这场时代的圈套。
  平常百姓的房贷在金融市场上,以几十倍甚至上百倍的价格被炒作着。对冲基金推波助澜,当房产泡沫终极被吹爆的瞬间,华尔街的上市公司Bear Stearns(贝尔斯登)瞬间公布破产,政府扶持的房贷公司,无数投资人的资金瞬间蒸发。而一切不幸也成为了少数人敛财的机遇,银里手JP Morgan暗箱操纵,以$2每股的极低价格买入贝尔斯登(当日市值为$20多每股),而美国政府的Bail-Out(救急资金)则变相的以薪水和年关奖再次入了高层CEO和资产具有者们的钱包。某些人以卖空操纵,在贝尔斯登破产前的一周内,以$170万的投资盈利$2.5亿,就如9/11可骇攻击前的几天,有人卖空事发航空公司获得巨额回报一样,似乎早有人预知了一切,而这2次极异常的卖空操纵都必须经过证监机构确认后才可以实行。
  平民百姓不能不承受越来越高的衡宇存款利息和美国政府的国债及其金融市场的损失。
  1. Video
  2. ID                                       : 1
  3. Format                                   : AVC
  4. Format/Info                              : Advanced Video Codec
  5. Format profile                           : [email protected]
  6. Format settings                          : CABAC / 4 Ref Frames
  7. Format settings, CABAC                   : Yes
  8. Format settings, Reference frames        : 4 frames
  9. Codec ID                                 : V_MPEG4/ISO/AVC
  10. Duration                                 : 1 h 41 min
  11. Bit rate mode                            : Constant
  12. Bit rate                                 : 9 166 kb/s
  13. Nominal bit rate                         : 10 000 kb/s
  14. Width                                    : 1 920 pixels
  15. Height                                   : 1 080 pixels
  16. Display aspect ratio                     : 16:9
  17. Frame rate mode                          : Constant
  18. Frame rate                               : 29.970 (30000/1001) FPS
  19. Color space                              : YUV
  20. Chroma subsampling                       : 4:2:0
  21. Bit depth                                : 8 bits
  22. Scan type                                : Progressive
  23. Bits/(Pixel*Frame)                       : 0.147
  24. Stream size                              : 6.52 GiB (98%)
  25. Default                                  : Yes
  26. Forced                                   : No
  27. Color range                              : Limited
  28. Color primaries                          : BT.709
  29. Transfer characteristics                 : BT.709
  30. Matrix coefficients                      : BT.709

  31. Audio
  32. ID                                       : 2
  33. Format                                   : E-AC-3
  34. Format/Info                              : Enhanced AC-3
  35. Commercial name                          : Dolby Digital Plus
  36. Codec ID                                 : A_EAC3
  37. Duration                                 : 1 h 41 min
  38. Bit rate mode                            : Constant
  39. Bit rate                                 : 224 kb/s
  40. Channel(s)                               : 2 channels
  41. Channel layout                           : L R
  42. Sampling rate                            : 48.0 kHz
  43. Frame rate                               : 31.250 FPS (1536 SPF)
  44. Compression mode                         : Lossy
  45. Stream size                              : 163 MiB (2%)
  46. Language                                 : English
  47. Service kind                             : Complete Main
  48. Default                                  : Yes
  49. Forced                                   : No

  50. Text
  51. ID                                       : 3
  52. Format                                   : UTF-8
  53. Codec ID                                 : S_TEXT/UTF8
  54. Codec ID/Info                            : UTF-8 Plain Text
  55. Duration                                 : 1 h 39 min
  56. Bit rate                                 : 113 b/s
  57. Count of elements                        : 2093
  58. Stream size                              : 82.1 KiB (0%)
  59. Title                                    : SDH
  60. Language                                 : English
  61. Default                                  : No
  62. Forced                                   : No
复制代码

掠夺:我们这时代的犯罪 Plunder.The.Crime.of.Our.Time.2009.1080p.AMZN.WEBRip.DDP2.0.x264-TEPES 6.68GB-2.png 掠夺:我们这时代的犯罪 Plunder.The.Crime.of.Our.Time.2009.1080p.AMZN.WEBRip.DDP2.0.x264-TEPES 6.68GB-3.png 掠夺:我们这时代的犯罪 Plunder.The.Crime.of.Our.Time.2009.1080p.AMZN.WEBRip.DDP2.0.x264-TEPES 6.68GB-4.png






回复

使用道具 举报

懒得打字嘛,点击右侧快捷回复 【右侧内容,后台自定义】
您需要登录后才可以回帖 登录 | 立即加入

本版积分规则

Archiver|小黑屋| 蓝光电影网 |网站地图

Copyright © 2021 Comsenz Inc. Powered by 蓝光电影网

蓝光电影网

本站内容由用户自主分享和转载自互联网,转载目的在于传递更多信息,并不代表本网赞同其观点和对其真实性负责。

如有侵权、违反国家法律政策行为,请联系我们,我们会第一时间及时清除和处理!

举报反馈邮箱:[email protected]

快速回复 返回顶部 返回列表