找回密码

蓝光电影网

查看: 152|回复: 0

[喜剧] 巴黎之窗 Paris.Window.2018.720p.AMZN.WEBRip.DDP2.0.x264-TEPES 2.17GB

[复制链接]
蓝光币
382
发表于 2020-1-20 00:18:39 | 显示全部楼层 |阅读模式
9778f190b9c59.png

译  名 巴黎之窗
片  名 Paris Window
年  代 2018
产  地 美国
类  别 笑剧 / 惊悚
语  言 英语
IMDb评分  3.9/10 from 18 users
IMDb链接  https://www.imdb.com/title/tt6425474
豆瓣评分 0/10 from 0 users
豆瓣链接 https://movie.douban.com/subject/34808294/
导  演 Amanda Kramer
编  剧 Amanda Kramer / Noel David Taylor
主  演 Noel David Taylor
       Sophie Kargman
       Anna Cordell


简  介  

  暂无相关剧情先容
  1. Video
  2. ID                                       : 1
  3. Format                                   : AVC
  4. Format/Info                              : Advanced Video Codec
  5. Format profile                           : [email protected]
  6. Format settings                          : CABAC / 4 Ref Frames
  7. Format settings, CABAC                   : Yes
  8. Format settings, Reference frames        : 4 frames
  9. Codec ID                                 : V_MPEG4/ISO/AVC
  10. Duration                                 : 1 h 25 min
  11. Bit rate mode                            : Constant
  12. Bit rate                                 : 3 432 kb/s
  13. Nominal bit rate                         : 6 000 kb/s
  14. Width                                    : 1 280 pixels
  15. Height                                   : 720 pixels
  16. Display aspect ratio                     : 16:9
  17. Frame rate mode                          : Constant
  18. Frame rate                               : 23.976 (24000/1001) FPS
  19. Color space                              : YUV
  20. Chroma subsampling                       : 4:2:0
  21. Bit depth                                : 8 bits
  22. Scan type                                : Progressive
  23. Bits/(Pixel*Frame)                       : 0.155
  24. Stream size                              : 2.04 GiB (94%)
  25. Default                                  : Yes
  26. Forced                                   : No
  27. Color range                              : Limited
  28. Color primaries                          : BT.709
  29. Transfer characteristics                 : BT.709
  30. Matrix coefficients                      : BT.709

  31. Audio
  32. ID                                       : 2
  33. Format                                   : E-AC-3
  34. Format/Info                              : Enhanced AC-3
  35. Commercial name                          : Dolby Digital Plus
  36. Codec ID                                 : A_EAC3
  37. Duration                                 : 1 h 25 min
  38. Bit rate mode                            : Constant
  39. Bit rate                                 : 224 kb/s
  40. Channel(s)                               : 2 channels
  41. Channel layout                           : L R
  42. Sampling rate                            : 48.0 kHz
  43. Frame rate                               : 31.250 FPS (1536 SPF)
  44. Compression mode                         : Lossy
  45. Stream size                              : 136 MiB (6%)
  46. Language                                 : English
  47. Service kind                             : Complete Main
  48. Default                                  : Yes
  49. Forced                                   : No

  50. Text
  51. ID                                       : 3
  52. Format                                   : UTF-8
  53. Codec ID                                 : S_TEXT/UTF8
  54. Codec ID/Info                            : UTF-8 Plain Text
  55. Duration                                 : 1 h 23 min
  56. Bit rate                                 : 42 b/s
  57. Count of elements                        : 916
  58. Stream size                              : 26.0 KiB (0%)
  59. Title                                    : SDH
  60. Language                                 : English
  61. Default                                  : No
  62. Forced                                   : No
复制代码

巴黎之窗 Paris.Window.2018.720p.AMZN.WEBRip.DDP2.0.x264-TEPES 2.17GB-2.png 巴黎之窗 Paris.Window.2018.720p.AMZN.WEBRip.DDP2.0.x264-TEPES 2.17GB-3.png 巴黎之窗 Paris.Window.2018.720p.AMZN.WEBRip.DDP2.0.x264-TEPES 2.17GB-4.png






回复

使用道具 举报

懒得打字嘛,点击右侧快捷回复 【右侧内容,后台自定义】
您需要登录后才可以回帖 登录 | 立即加入

本版积分规则

Archiver|小黑屋| 蓝光电影网 |网站地图

Copyright © 2021 Comsenz Inc. Powered by 蓝光电影网

蓝光电影网

本站内容由用户自主分享和转载自互联网,转载目的在于传递更多信息,并不代表本网赞同其观点和对其真实性负责。

如有侵权、违反国家法律政策行为,请联系我们,我们会第一时间及时清除和处理!

举报反馈邮箱:[email protected]

快速回复 返回顶部 返回列表