找回密码

蓝光电影网

查看: 300|回复: 0

[剧情] 客户名单 The.Client.List.2010.1080p.AMZN.WEBRip.DDP5.1.x264-monkee 8.8GB

[复制链接]
蓝光币
382
发表于 2020-1-20 13:30:09 | 显示全部楼层 |阅读模式
客户名单 The.Client.List.2010.1080p.AMZN.WEBRip.DDP5.1.x264-monkee 8.8GB-1.jpg




译  名 客户名单

片  名 The Client List

年  代 2010

产  地 美国

类  别 剧情

语  言 英语

上映日期 2010-07-19

IMDb评分  5.8/10 from 5,592 users

IMDb链接  http://www.imdb.com/title/tt1625340/

豆瓣评分 5.6/10 from 679 users

豆瓣链接 https://movie.douban.com/subject/5032135/

片  长 88分钟

导  演 Eric Laneuville

主  演 詹妮弗·洛芙·休伊特 Jennifer Love Hewitt

      斯碧尔·谢波德 Cybill Shepherd

      桑娅·本妮特 Sonja Bennett

      泰迪·西尔斯 Teddy Sears




简  介




  影片报告了一个前选美皇后在丈夫受伤没法工作、家庭堕入窘境后,挑选了到一个推拿院工作,但她的客户对她的期望并不但仅是一次推拿……




  1. Video
  2. ID : 1
  3. Format : AVC
  4. Format/Info : Advanced Video Codec
  5. Format profile : [email protected]
  6. Format settings, CABAC : Yes
  7. Format settings, ReFrames : 4 frames
  8. Codec ID : V_MPEG4/ISO/AVC
  9. Duration : 1 h 28 min
  10. Bit rate mode : Variable
  11. Bit rate : 13.7 Mb/s
  12. Maximum bit rate : 15.0 Mb/s
  13. Width : 1 920 pixels
  14. Height : 1 080 pixels
  15. Display aspect ratio : 16:9
  16. Frame rate mode : Constant
  17. Frame rate : 23.976 (24000/1001) FPS
  18. Color space : YUV
  19. Chroma subsampling : 4:2:0
  20. Bit depth : 8 bits
  21. Scan type : Progressive
  22. Bits/(Pixel*Frame) : 0.276
  23. Stream size : 8.47 GiB (96%)
  24. Default : Yes
  25. Forced : No
  26. Color range : Limited
  27. Color primaries : BT.709
  28. Transfer characteristics : BT.709
  29. Matrix coefficients : BT.709

  30. Audio
  31. ID : 2
  32. Format : E-AC-3
  33. Format/Info : Enhanced Audio Coding 3
  34. Format settings, Endianness : Big
  35. Codec ID : A_EAC3
  36. Duration : 1 h 28 min
  37. Bit rate mode : Constant
  38. Bit rate : 640 kb/s
  39. Channel(s) : 6 channels
  40. Channel positions : Front: L C R, Side: L R, LFE
  41. Sampling rate : 48.0 kHz
  42. Frame rate : 187.500 FPS (256 spf)
  43. Compression mode : Lossy
  44. Stream size : 404 MiB (4%)
  45. Language : English
  46. Service kind : Complete Main
  47. Default : Yes
  48. Forced : No

  49. Text
  50. ID : 3
  51. Format : UTF-8
  52. Codec ID : S_TEXT/UTF8
  53. Codec ID/Info : UTF-8 Plain Text
  54. Duration : 1 h 26 min
  55. Bit rate : 80 b/s
  56. Count of elements : 1521
  57. Stream size : 51.5 KiB (0%)
  58. Language : English
  59. Default : No
  60. Forced : No
复制代码




客户名单 The.Client.List.2010.1080p.AMZN.WEBRip.DDP5.1.x264-monkee 8.8GB-2.jpg 客户名单 The.Client.List.2010.1080p.AMZN.WEBRip.DDP5.1.x264-monkee 8.8GB-3.jpg
客户名单 The.Client.List.2010.1080p.AMZN.WEBRip.DDP5.1.x264-monkee 8.8GB-4.jpg 客户名单 The.Client.List.2010.1080p.AMZN.WEBRip.DDP5.1.x264-monkee 8.8GB-5.jpg
客户名单 The.Client.List.2010.1080p.AMZN.WEBRip.DDP5.1.x264-monkee 8.8GB-6.jpg 客户名单 The.Client.List.2010.1080p.AMZN.WEBRip.DDP5.1.x264-monkee 8.8GB-7.jpg




回复

使用道具 举报

懒得打字嘛,点击右侧快捷回复 【右侧内容,后台自定义】
您需要登录后才可以回帖 登录 | 立即加入

本版积分规则

Archiver|小黑屋| 蓝光电影网 |网站地图

Copyright © 2021 Comsenz Inc. Powered by 蓝光电影网

蓝光电影网

本站内容由用户自主分享和转载自互联网,转载目的在于传递更多信息,并不代表本网赞同其观点和对其真实性负责。

如有侵权、违反国家法律政策行为,请联系我们,我们会第一时间及时清除和处理!

举报反馈邮箱:[email protected]

快速回复 返回顶部 返回列表