找回密码

蓝光电影网

查看: 191|回复: 0

[剧情] 尼伯龙根:西格弗里德之死 Die.Nibelungen.Siegfried.1924.720p.BluRay.x264-USURY 9.84GB

[复制链接]
蓝光币
382
发表于 2020-1-20 13:43:44 | 显示全部楼层 |阅读模式
尼伯龙根:西格弗里德之死 Die.Nibelungen.Siegfried.1924.720p.BluRay.x264-USURY 9.84GB-1.png

译  名 尼伯龙根:西格弗里德之死 / Die Nibelungen - Teil 1: Siegfried / 尼伯龙根 I:西格弗里德 / 尼伯龙根之歌 / 尼伯龙根之歌1:西格弗里德之死 / 尼伯龙根:西格弗里德 / 西格弗里德之死
片  名 Die Nibelungen: Siegfried
年  代 1924
产  地 德国
类  别 剧情 / 奇异 / 冒险
语  言 德语
上映日期 1924-02-14
IMDb评分  8.1/10 from 4835 users
IMDb链接  https://www.imdb.com/title/tt0015175
豆瓣评分 8.7/10 from 980 users
豆瓣链接 https://movie.douban.com/subject/1298312/
片  长 140分钟(加拿大)
导  演 弗里茨·朗 Fritz Lang
编  剧 弗里茨·朗 Fritz Lang / 特娅·冯·哈堡 Thea von Harbou
主  演 Gertrud Arnold
       Margarete Sch?n
       Paul Richter


标  签 德国 | 默片 | 弗里茨·朗 | 表示主义 | 1920s | 德国电影 | FritzLang | 黑白

简  介  

  这是一个按照一个陈腐的德国传闻改编的故事。很久之前有一个豪杰,他叫西格弗里德。由于龙血洗澡,他满身刀枪不入,力大非常。有一天,他相逢了美丽的公主西里姆希尔德而坠入了情网,决心去城堡里找她,他这一路履历了很多,碰到了好人还有好人......
  1. Video
  2. ID                                       : 1
  3. Format                                   : AVC
  4. Format/Info                              : Advanced Video Codec
  5. Format profile                           : [email protected]
  6. Format settings                          : CABAC / 5 Ref Frames
  7. Format settings, CABAC                   : Yes
  8. Format settings, Reference frames        : 5 frames
  9. Codec ID                                 : V_MPEG4/ISO/AVC
  10. Duration                                 : 2 h 29 min
  11. Bit rate                                 : 7 883 kb/s
  12. Width                                    : 960 pixels
  13. Height                                   : 720 pixels
  14. Display aspect ratio                     : 4:3
  15. Frame rate mode                          : Constant
  16. Frame rate                               : 20.000 FPS
  17. Color space                              : YUV
  18. Chroma subsampling                       : 4:2:0
  19. Bit depth                                : 8 bits
  20. Scan type                                : Progressive
  21. Bits/(Pixel*Frame)                       : 0.570
  22. Stream size                              : 8.25 GiB (84%)
  23. Writing library                          : x264 core 157 r2969 d4099dd
  24. Encoding settings                        : cabac=1 / ref=5 / deblock=1:-3:-3 / analyse=0x3:0x133 / me=umh / subme=9 / psy=1 / psy_rd=1.00:0.00 / mixed_ref=1 / me_range=16 / chroma_me=1 / trellis=2 / 8x8dct=1 / cqm=0 / deadzone=21,11 / fast_pskip=0 / chroma_qp_offset=-2 / threads=18 / lookahead_threads=1 / sliced_threads=0 / nr=0 / decimate=1 / interlaced=0 / bluray_compat=0 / constrained_intra=0 / bframes=3 / b_pyramid=2 / b_adapt=1 / b_bias=0 / direct=3 / weightb=1 / open_gop=0 / weightp=2 / keyint=200 / keyint_min=20 / scenecut=40 / intra_refresh=0 / rc_lookahead=50 / rc=2pass / mbtree=1 / bitrate=7883 / ratetol=1.0 / qcomp=0.60 / qpmin=0 / qpmax=69 / qpstep=4 / cplxblur=20.0 / qblur=0.5 / ip_ratio=1.40 / aq=1:1.00
  25. Language                                 : English
  26. Default                                  : Yes
  27. Forced                                   : No

  28. Audio
  29. ID                                       : 2
  30. Format                                   : DTS
  31. Format/Info                              : Digital Theater Systems
  32. Codec ID                                 : A_DTS
  33. Duration                                 : 2 h 29 min
  34. Bit rate mode                            : Constant
  35. Bit rate                                 : 1 509 kb/s
  36. Channel(s)                               : 6 channels
  37. Channel layout                           : C L R Ls Rs LFE
  38. Sampling rate                            : 48.0 kHz
  39. Frame rate                               : 93.750 FPS (512 SPF)
  40. Bit depth                                : 24 bits
  41. Compression mode                         : Lossy
  42. Stream size                              : 1.58 GiB (16%)
  43. Default                                  : Yes
  44. Forced                                   : No

  45. Text
  46. ID                                       : 3
  47. Format                                   : UTF-8
  48. Codec ID                                 : S_TEXT/UTF8
  49. Codec ID/Info                            : UTF-8 Plain Text
  50. Duration                                 : 2 h 29 min
  51. Bit rate                                 : 10 b/s
  52. Count of elements                        : 350
  53. Stream size                              : 11.3 KiB (0%)
  54. Title                                    : English
  55. Language                                 : English
  56. Default                                  : Yes
  57. Forced                                   : Yes

  58. Menu
  59. 00:00:00.000                             : en:00:00:00.000
  60. 00:01:13.000                             : en:00:01:13.000
  61. 00:02:48.000                             : en:00:02:48.000
  62. 00:23:58.250                             : en:00:23:58.250
  63. 00:51:13.583                             : en:00:51:13.583
  64. 01:07:36.250                             : en:01:07:36.250
  65. 01:27:04.042                             : en:01:27:04.042
  66. 01:48:30.750                             : en:01:48:30.750
  67. 02:10:27.167                             : en:02:10:27.167
复制代码

78057658518883950166_medium.jpg






回复

使用道具 举报

懒得打字嘛,点击右侧快捷回复 【右侧内容,后台自定义】
您需要登录后才可以回帖 登录 | 立即加入

本版积分规则

Archiver|小黑屋| 蓝光电影网 |网站地图

Copyright © 2021 Comsenz Inc. Powered by 蓝光电影网

蓝光电影网

本站内容由用户自主分享和转载自互联网,转载目的在于传递更多信息,并不代表本网赞同其观点和对其真实性负责。

如有侵权、违反国家法律政策行为,请联系我们,我们会第一时间及时清除和处理!

举报反馈邮箱:[email protected]

快速回复 返回顶部 返回列表