找回密码

蓝光电影网

查看: 186|回复: 1

[剧情] 红松鼠杀人事件 The.Red.Squirrel.1993.720p.BluRay.x264-USURY 4.38GB

[复制链接]
蓝光币
382
发表于 2020-1-20 13:45:18 | 显示全部楼层 |阅读模式
红松鼠杀人事务 The.Red.Squirrel.1993.720p.BluRay.x264-USURY 4.38GB-1.png

译  名 红松鼠杀人事务 / The Red Squirrel / 红松鼠
片  名 La ardilla roja
年  代 1993
产  地 西班牙
类  别 剧情 / 笑剧 / 恋爱 / 悬疑 / 音乐
语  言 西班牙语 / 德语
上映日期 1993-04-21
IMDb评分  7.2/10 from 4080 users
IMDb链接  https://www.imdb.com/title/tt0106305
豆瓣评分 7.6/10 from 3196 users
豆瓣链接 https://movie.douban.com/subject/1304830/
片  长 114 分钟
导  演 Julio Medem
编  剧 Julio Medem
主  演 Emma Suárez
       Nancho Novo
       María Barranco
       Karra Elejalde
       Carmelo Gómez
       Cristina Marcos


标  签 西班牙 | JulioMedem | 西班牙电影 | 恋爱 | 1993 | 红松鼠杀人事务 | 密谭 | Julio_Medem

简  介  

  女友离去,乐队闭幕,失意的摇滚乐手乔塔(Nancho Novo 饰)决议从桥上跳下竣事自己的生命。正在这时,一辆失控的摩托车从死后缓慢驶来,撞破护栏摔在桥下的沙滩上。乔塔急忙跑去救援,发现这名女性车手(Emma Suárez 饰)在剧烈的撞击之下损失了记忆。鬼使神差之下乔塔谎称对方名叫丽莎,而自己则是她的男朋友。
  伤愈以后乔塔带着丽莎来到红松鼠度假区疗养,他谨慎编织着自以为完善无缺的假话,却没留心发现自己堕入一个深不见底的谜局……
  本片荣获1993年戛纳电影节外语片青年奖。

获奖情况  

  第46届戛纳电影节(1993)
  青年电影奖 本国电影 胡里奥·密谭
  1. Video
  2. ID                                       : 1
  3. Format                                   : AVC
  4. Format/Info                              : Advanced Video Codec
  5. Format profile                           : [email protected]
  6. Format settings                          : CABAC / 5 Ref Frames
  7. Format settings, CABAC                   : Yes
  8. Format settings, Reference frames        : 5 frames
  9. Codec ID                                 : V_MPEG4/ISO/AVC
  10. Duration                                 : 1 h 54 min
  11. Bit rate                                 : 4 818 kb/s
  12. Width                                    : 1 280 pixels
  13. Height                                   : 688 pixels
  14. Display aspect ratio                     : 1.85:1
  15. Frame rate mode                          : Constant
  16. Frame rate                               : 24.000 FPS
  17. Color space                              : YUV
  18. Chroma subsampling                       : 4:2:0
  19. Bit depth                                : 8 bits
  20. Scan type                                : Progressive
  21. Bits/(Pixel*Frame)                       : 0.228
  22. Stream size                              : 3.86 GiB (88%)
  23. Writing library                          : x264 core 157 r2969 d4099dd
  24. Encoding settings                        : cabac=1 / ref=5 / deblock=1:-3:-3 / analyse=0x3:0x133 / me=umh / subme=9 / psy=1 / psy_rd=1.00:0.00 / mixed_ref=1 / me_range=16 / chroma_me=1 / trellis=2 / 8x8dct=1 / cqm=0 / deadzone=21,11 / fast_pskip=0 / chroma_qp_offset=-2 / threads=18 / lookahead_threads=1 / sliced_threads=0 / nr=0 / decimate=1 / interlaced=0 / bluray_compat=0 / constrained_intra=0 / bframes=3 / b_pyramid=2 / b_adapt=1 / b_bias=0 / direct=3 / weightb=1 / open_gop=0 / weightp=2 / keyint=240 / keyint_min=24 / scenecut=40 / intra_refresh=0 / rc_lookahead=50 / rc=2pass / mbtree=1 / bitrate=4818 / ratetol=1.0 / qcomp=0.60 / qpmin=0 / qpmax=69 / qpstep=4 / cplxblur=20.0 / qblur=0.5 / ip_ratio=1.40 / aq=1:1.00
  25. Language                                 : English
  26. Default                                  : Yes
  27. Forced                                   : No

  28. Audio
  29. ID                                       : 2
  30. Format                                   : AC-3
  31. Format/Info                              : Audio Coding 3
  32. Commercial name                          : Dolby Digital
  33. Codec ID                                 : A_AC3
  34. Duration                                 : 1 h 54 min
  35. Bit rate mode                            : Constant
  36. Bit rate                                 : 640 kb/s
  37. Channel(s)                               : 6 channels
  38. Channel layout                           : L R C LFE Ls Rs
  39. Sampling rate                            : 48.0 kHz
  40. Frame rate                               : 31.250 FPS (1536 SPF)
  41. Bit depth                                : 16 bits
  42. Compression mode                         : Lossy
  43. Stream size                              : 525 MiB (12%)
  44. Language                                 : Spanish
  45. Service kind                             : Complete Main
  46. Default                                  : Yes
  47. Forced                                   : No

  48. Text #1
  49. ID                                       : 3
  50. Format                                   : UTF-8
  51. Codec ID                                 : S_TEXT/UTF8
  52. Codec ID/Info                            : UTF-8 Plain Text
  53. Duration                                 : 1 h 49 min
  54. Bit rate                                 : 45 b/s
  55. Count of elements                        : 1408
  56. Stream size                              : 36.6 KiB (0%)
  57. Title                                    : English
  58. Language                                 : English
  59. Default                                  : Yes
  60. Forced                                   : Yes

  61. Text #2
  62. ID                                       : 4
  63. Format                                   : UTF-8
  64. Codec ID                                 : S_TEXT/UTF8
  65. Codec ID/Info                            : UTF-8 Plain Text
  66. Duration                                 : 1 h 48 min
  67. Bit rate                                 : 49 b/s
  68. Count of elements                        : 1413
  69. Stream size                              : 39.1 KiB (0%)
  70. Title                                    : French
  71. Language                                 : French
  72. Default                                  : No
  73. Forced                                   : No

  74. Menu
  75. 00:00:00.000                             : en:00:00:00.000
  76. 00:10:12.417                             : en:00:10:12.417
  77. 00:19:42.167                             : en:00:19:42.167
  78. 00:28:59.833                             : en:00:28:59.833
  79. 00:39:13.917                             : en:00:39:13.917
  80. 00:47:53.500                             : en:00:47:53.500
  81. 00:57:54.292                             : en:00:57:54.292
  82. 01:07:19.750                             : en:01:07:19.750
  83. 01:17:10.792                             : en:01:17:10.792
  84. 01:28:54.500                             : en:01:28:54.500
  85. 01:35:05.417                             : en:01:35:05.417
  86. 01:43:56.083                             : en:01:43:56.083
复制代码

红松鼠杀人事务 The.Red.Squirrel.1993.720p.BluRay.x264-USURY 4.38GB-2.png






回复

使用道具 举报

懒得打字嘛,点击右侧快捷回复 【右侧内容,后台自定义】
您需要登录后才可以回帖 登录 | 立即加入

本版积分规则

Archiver|小黑屋| 蓝光电影网 |网站地图

Copyright © 2021 Comsenz Inc. Powered by 蓝光电影网

蓝光电影网

本站内容由用户自主分享和转载自互联网,转载目的在于传递更多信息,并不代表本网赞同其观点和对其真实性负责。

如有侵权、违反国家法律政策行为,请联系我们,我们会第一时间及时清除和处理!

举报反馈邮箱:[email protected]

快速回复 返回顶部 返回列表