找回密码

蓝光电影网

查看: 168|回复: 0

[剧情] 尼伯龙根2:克里姆希尔德的复仇 Die.Nibelungen.Kriemhilds.Revenge.1924.720p.BluRay.x264-USURY 7.95GB

[复制链接]
蓝光币
382
发表于 2020-1-20 13:47:36 | 显示全部楼层 |阅读模式
尼伯龙根2:克里姆希尔德的复仇 Die.Nibelungen.Kriemhilds.Revenge.1924.720p.BluRay.x264-USURY 7.95GB-1.png

译  名 尼伯龙根2:克里姆希尔德的复仇 / Die Nibelungen - Teil 2: Kriemhilds Rache / Die Nibelungen: Kriemhilds Rache / Kriemhild's Revenge / 尼伯龙根Ⅱ:克里姆希尔德的复仇 / 尼伯龙根之歌
片  名 Die Nibelungen: Kriemhilds Rache
年  代 1924
产  地 德国
类  别 剧情 / 奇异 / 冒险
语  言 无对白
上映日期 1924-04-26(德国)
IMDb评分  8.0/10 from 3678 users
IMDb链接  https://www.imdb.com/title/tt0015174
豆瓣评分 8.7/10 from 727 users
豆瓣链接 https://movie.douban.com/subject/1867888/
片  长 129分钟
导  演 弗里茨·朗 Fritz Lang
编  剧 特娅·冯·哈堡 Thea von Harbou
主  演 Margarete Sch?n
       Gertrud Arnold
       Theodor Loos
       Hans Adalbert Schlettow
       鲁道夫·克莱恩-鲁格 Rudolf Klein-Rogge
       Rudolf Rittner


标  签 德国 | 默片 | 弗里茨·朗 | 表示主义 | 1920s | 德国电影 | FritzLang | Fritz_Lang

简  介  

  按照德国古典史诗《尼贝龙根之歌》改编。本片共两部,第一部的副题目是《西格弗里德》或《西格弗里德之死》,又译《斩龙遇仙》;第二部《克伦希尔德的复仇》。第一部剧情:库山王子西格弗里德从传闻中得知,假如能用森林内的巨龙血液洗澡,就能满身刀剑不入,乃立即出发斩龙取血。不意飘来一片树叶 贴在他的背上盖住了龙血。他自恃刀剑不入,乃出兵伐罪矮人国,夺取隐身头巾和尼伯龙根的国宝。后来,他更凭这两样宝贝之助打败冰岛女王的军人,跟王妹克伦希尔德成婚。军人哈根得悉,将长矛瞄准被树叶贴住而未沾龙血的背部猛掷,西格弗里德回声倒地。第二部描写西格弗里德死后,克伦希尔德嫁给了匈奴国王伊泽尔,生下一个孩子。她约请她的兄弟前来加入派对,并激励伊泽尔向杀死她前夫西格弗里德的凶手哈根报仇。不意哈根获得她兄弟们的庇护,因而她必须为强逼自己的兄弟交出哈根而展开一场苦战。
  1. Video
  2. ID                                       : 1
  3. Format                                   : AVC
  4. Format/Info                              : Advanced Video Codec
  5. Format profile                           : [email protected]
  6. Format settings                          : CABAC / 5 Ref Frames
  7. Format settings, CABAC                   : Yes
  8. Format settings, Reference frames        : 5 frames
  9. Codec ID                                 : V_MPEG4/ISO/AVC
  10. Duration                                 : 2 h 11 min
  11. Bit rate                                 : 7 164 kb/s
  12. Width                                    : 960 pixels
  13. Height                                   : 720 pixels
  14. Display aspect ratio                     : 4:3
  15. Frame rate mode                          : Constant
  16. Frame rate                               : 22.000 FPS
  17. Color space                              : YUV
  18. Chroma subsampling                       : 4:2:0
  19. Bit depth                                : 8 bits
  20. Scan type                                : Progressive
  21. Bits/(Pixel*Frame)                       : 0.471
  22. Stream size                              : 6.56 GiB (83%)
  23. Writing library                          : x264 core 157 r2969 d4099dd
  24. Encoding settings                        : cabac=1 / ref=5 / deblock=1:-3:-3 / analyse=0x3:0x133 / me=umh / subme=9 / psy=1 / psy_rd=1.00:0.00 / mixed_ref=1 / me_range=16 / chroma_me=1 / trellis=2 / 8x8dct=1 / cqm=0 / deadzone=21,11 / fast_pskip=0 / chroma_qp_offset=-2 / threads=18 / lookahead_threads=1 / sliced_threads=0 / nr=0 / decimate=1 / interlaced=0 / bluray_compat=0 / constrained_intra=0 / bframes=3 / b_pyramid=2 / b_adapt=1 / b_bias=0 / direct=3 / weightb=1 / open_gop=0 / weightp=2 / keyint=220 / keyint_min=22 / scenecut=40 / intra_refresh=0 / rc_lookahead=50 / rc=2pass / mbtree=1 / bitrate=7164 / ratetol=1.0 / qcomp=0.60 / qpmin=0 / qpmax=69 / qpstep=4 / cplxblur=20.0 / qblur=0.5 / ip_ratio=1.40 / aq=1:1.00
  25. Language                                 : English
  26. Default                                  : Yes
  27. Forced                                   : No

  28. Audio
  29. ID                                       : 2
  30. Format                                   : DTS
  31. Format/Info                              : Digital Theater Systems
  32. Codec ID                                 : A_DTS
  33. Duration                                 : 2 h 11 min
  34. Bit rate mode                            : Constant
  35. Bit rate                                 : 1 509 kb/s
  36. Channel(s)                               : 6 channels
  37. Channel layout                           : C L R Ls Rs LFE
  38. Sampling rate                            : 48.0 kHz
  39. Frame rate                               : 93.750 FPS (512 SPF)
  40. Bit depth                                : 24 bits
  41. Compression mode                         : Lossy
  42. Stream size                              : 1.38 GiB (17%)
  43. Default                                  : Yes
  44. Forced                                   : No

  45. Text
  46. ID                                       : 3
  47. Format                                   : UTF-8
  48. Codec ID                                 : S_TEXT/UTF8
  49. Codec ID/Info                            : UTF-8 Plain Text
  50. Duration                                 : 2 h 10 min
  51. Bit rate                                 : 11 b/s
  52. Count of elements                        : 330
  53. Stream size                              : 11.3 KiB (0%)
  54. Title                                    : English
  55. Language                                 : English
  56. Default                                  : Yes
  57. Forced                                   : Yes

  58. Menu
  59. 00:00:00.000                             : en:00:00:00.000
  60. 00:02:54.250                             : en:00:02:54.250
  61. 00:19:54.125                             : en:00:19:54.125
  62. 00:39:51.333                             : en:00:39:51.333
  63. 00:54:03.708                             : en:00:54:03.708
  64. 01:09:26.208                             : en:01:09:26.208
  65. 01:26:12.125                             : en:01:26:12.125
  66. 01:43:07.833                             : en:01:43:07.833
  67. 02:10:02.625                             : en:02:10:02.625
复制代码

134555bxtbcgzntvc6b1n1.png






回复

使用道具 举报

懒得打字嘛,点击右侧快捷回复 【右侧内容,后台自定义】
您需要登录后才可以回帖 登录 | 立即加入

本版积分规则

Archiver|小黑屋| 蓝光电影网 |网站地图

Copyright © 2021 Comsenz Inc. Powered by 蓝光电影网

蓝光电影网

本站内容由用户自主分享和转载自互联网,转载目的在于传递更多信息,并不代表本网赞同其观点和对其真实性负责。

如有侵权、违反国家法律政策行为,请联系我们,我们会第一时间及时清除和处理!

举报反馈邮箱:[email protected]

快速回复 返回顶部 返回列表