找回密码

蓝光电影网

查看: 71|回复: 0

[喜剧] 与亲人共度圣诞节 Surviving.Christmas.with.the.Relatives.2018.1080p.AMZN.WEBRip.DDP5.1.x264-TEPES 6.56GB

[复制链接]
蓝光币
426
发表于 2020-1-20 13:52:14 | 显示全部楼层 |阅读模式
135132ya91bfvofap2tttm.png

译  名 与亲人共度圣诞节
片  名 Surviving Christmas With the Relatives
年  代 2018
产  地 英国
类  别 笑剧
语  言 英语
上映日期 2018-11-30(英国)
IMDb评分  5.0/10 from 449 users
IMDb链接  https://www.imdb.com/title/tt8255490
豆瓣评分 0/10 from 0 users
豆瓣链接 https://movie.douban.com/subject/30396312/
片  长 101分钟
导  演 詹姆斯·迪尔登 James Dearden
编  剧 詹姆斯·迪尔登 James Dearden
主  演 朱利安·欧文登 Julian Ovenden
       杰玛·韦兰 Gemma Whelan
       乔莉·理查德森 Joely Richardson
       迈克尔·兰德斯 Michael Landes
       莎莉·菲利普斯 Sally Phillips
       派翠西亚·霍吉 Patricia Hodge
       荣妮·安柯纳 Ronni Ancona
       詹姆斯·福克斯 James Fox


标  签 [歐美]

简  介  

  Two sisters and their families spend - or rather, endure - Christmas at their late parents' dilapidated country house.
  1. Video
  2. ID                                       : 1
  3. Format                                   : AVC
  4. Format/Info                              : Advanced Video Codec
  5. Format profile                           : [email protected]
  6. Format settings                          : CABAC / 4 Ref Frames
  7. Format settings, CABAC                   : Yes
  8. Format settings, Reference frames        : 4 frames
  9. Codec ID                                 : V_MPEG4/ISO/AVC
  10. Duration                                 : 1 h 41 min
  11. Bit rate mode                            : Constant
  12. Bit rate                                 : 8 627 kb/s
  13. Nominal bit rate                         : 10 000 kb/s
  14. Width                                    : 1 920 pixels
  15. Height                                   : 1 080 pixels
  16. Display aspect ratio                     : 16:9
  17. Frame rate mode                          : Constant
  18. Frame rate                               : 24.000 FPS
  19. Color space                              : YUV
  20. Chroma subsampling                       : 4:2:0
  21. Bit depth                                : 8 bits
  22. Scan type                                : Progressive
  23. Bits/(Pixel*Frame)                       : 0.173
  24. Stream size                              : 6.11 GiB (93%)
  25. Default                                  : Yes
  26. Forced                                   : No
  27. Color range                              : Limited
  28. Color primaries                          : BT.709
  29. Transfer characteristics                 : BT.709
  30. Matrix coefficients                      : BT.709

  31. Audio
  32. ID                                       : 2
  33. Format                                   : E-AC-3
  34. Format/Info                              : Enhanced AC-3
  35. Commercial name                          : Dolby Digital Plus
  36. Codec ID                                 : A_EAC3
  37. Duration                                 : 1 h 41 min
  38. Bit rate mode                            : Constant
  39. Bit rate                                 : 640 kb/s
  40. Channel(s)                               : 6 channels
  41. Channel layout                           : L R C LFE Ls Rs
  42. Sampling rate                            : 48.0 kHz
  43. Frame rate                               : 31.250 FPS (1536 SPF)
  44. Compression mode                         : Lossy
  45. Stream size                              : 464 MiB (7%)
  46. Language                                 : English
  47. Service kind                             : Complete Main
  48. Default                                  : Yes
  49. Forced                                   : No

  50. Text
  51. ID                                       : 3
  52. Format                                   : UTF-8
  53. Codec ID                                 : S_TEXT/UTF8
  54. Codec ID/Info                            : UTF-8 Plain Text
  55. Duration                                 : 1 h 40 min
  56. Bit rate                                 : 73 b/s
  57. Count of elements                        : 2170
  58. Stream size                              : 54.3 KiB (0%)
  59. Title                                    : SDH
  60. Language                                 : English
  61. Default                                  : No
  62. Forced                                   : No
复制代码

与亲人共度圣诞节 Surviving.Christmas.with.the.Relatives.2018.1080p.AMZN.WEBRip.DDP5.1.x264-TEPES 6.56GB-2.png 与亲人共度圣诞节 Surviving.Christmas.with.the.Relatives.2018.1080p.AMZN.WEBRip.DDP5.1.x264-TEPES 6.56GB-3.png 与亲人共度圣诞节 Surviving.Christmas.with.the.Relatives.2018.1080p.AMZN.WEBRip.DDP5.1.x264-TEPES 6.56GB-4.png






回复

使用道具 举报

懒得打字嘛,点击右侧快捷回复 【右侧内容,后台自定义】
您需要登录后才可以回帖 登录 | 立即加入

本版积分规则

Archiver|小黑屋| 蓝光电影网 |网站地图

Copyright © 2021 Comsenz Inc. Powered by 蓝光电影网

蓝光电影网

本站内容由用户自主分享和转载自互联网,转载目的在于传递更多信息,并不代表本网赞同其观点和对其真实性负责。

如有侵权、违反国家法律政策行为,请联系我们,我们会第一时间及时清除和处理!

举报反馈邮箱:[email protected]

快速回复 返回顶部 返回列表