找回密码

蓝光电影网

查看: 70|回复: 0

[剧情] 你愿意嫁给他吗 Do.You.Take.This.Man.2016.1080p.WEBRip.DDP2.0.x264-NTG 6.82GB

[复制链接]
蓝光币
426
发表于 2020-1-20 13:59:49 | 显示全部楼层 |阅读模式
你愿意嫁给他吗 Do.You.Take.This.Man.2016.1080p.WEBRip.DDP2.0.x264-NTG 6.82GB-1.png

译  名 你愿意嫁给他吗
片  名 Do You Take This Man
年  代 2016
产  地 美国
类  别 剧情 / 恋爱 / 同性
语  言 英语
上映日期 2016-07-16(LA Outfest) / 2017-07-07(美国)
IMDb评分  5.7/10 from 392 users
IMDb链接  https://www.imdb.com/title/tt4723724
豆瓣评分 6.8/10 from 400 users
豆瓣链接 https://movie.douban.com/subject/26814060/
片  长 92分钟
导  演 约书亚·图尼克 Joshua Tunick
编  剧 约书亚·图尼克 Joshua Tunick
主  演 安东尼·拉普 Anthony Rapp
       乔纳森·本内特 Jonathan Bennett
       艾丽森·汉妮根 Alyson Hannigan
       托马斯·戴克 Thomas Dekker
       麦肯齐·阿斯丁 Mackenzie Astin
       阿隆娜·塔尔 Alona Tal
       山姆·安德森 Sam Anderson
       李·加林顿 Lee Garlington
       哈奇·汉考克 Hutchi Hancock
       玛拉·索科洛芙 Marla Sokoloff
       亚当·休伯 Adam Huber


标  签 同性 | 美国 | 恋爱 | 同道 | 2016 | 笑剧 | LGBT | 温情

简  介  

  一部温情浪漫的电影,报告了丹尼尔和克里斯托弗婚礼夜发生的故事。当克里斯托弗的昔日旧友忽然出现,两人世关系发生了急剧的变化。这对情侣需要依靠朋友和家人的帮助重新审阅他们之间的豪情。他们俩人的关系又将何去何从?
  1. Video
  2. ID                                       : 1
  3. Format                                   : AVC
  4. Format/Info                              : Advanced Video Codec
  5. Format profile                           : [email protected]
  6. Format settings                          : CABAC / 4 Ref Frames
  7. Format settings, CABAC                   : Yes
  8. Format settings, Reference frames        : 4 frames
  9. Codec ID                                 : V_MPEG4/ISO/AVC
  10. Duration                                 : 1 h 33 min
  11. Bit rate mode                            : Variable
  12. Bit rate                                 : 10.2 Mb/s
  13. Maximum bit rate                         : 15.0 Mb/s
  14. Width                                    : 1 920 pixels
  15. Height                                   : 1 080 pixels
  16. Display aspect ratio                     : 16:9
  17. Frame rate mode                          : Constant
  18. Frame rate                               : 23.976 (24000/1001) FPS
  19. Color space                              : YUV
  20. Chroma subsampling                       : 4:2:0
  21. Bit depth                                : 8 bits
  22. Scan type                                : Progressive
  23. Bits/(Pixel*Frame)                       : 0.205
  24. Stream size                              : 6.68 GiB (98%)
  25. Default                                  : Yes
  26. Forced                                   : No
  27. Color range                              : Limited
  28. Color primaries                          : BT.709
  29. Transfer characteristics                 : BT.709
  30. Matrix coefficients                      : BT.709

  31. Audio
  32. ID                                       : 2
  33. Format                                   : E-AC-3
  34. Format/Info                              : Enhanced AC-3
  35. Commercial name                          : Dolby Digital Plus
  36. Codec ID                                 : A_EAC3
  37. Duration                                 : 1 h 33 min
  38. Bit rate mode                            : Constant
  39. Bit rate                                 : 224 kb/s
  40. Channel(s)                               : 2 channels
  41. Channel layout                           : L R
  42. Sampling rate                            : 48.0 kHz
  43. Frame rate                               : 31.250 FPS (1536 SPF)
  44. Compression mode                         : Lossy
  45. Stream size                              : 150 MiB (2%)
  46. Language                                 : English
  47. Service kind                             : Complete Main
  48. Default                                  : Yes
  49. Forced                                   : No

  50. Text #1
  51. ID                                       : 3
  52. Format                                   : UTF-8
  53. Codec ID                                 : S_TEXT/UTF8
  54. Codec ID/Info                            : UTF-8 Plain Text
  55. Duration                                 : 1 h 33 min
  56. Bit rate                                 : 82 b/s
  57. Count of elements                        : 1637
  58. Stream size                              : 56.2 KiB (0%)
  59. Language                                 : English
  60. Default                                  : No
  61. Forced                                   : No

  62. Text #2
  63. ID                                       : 4
  64. Format                                   : UTF-8
  65. Codec ID                                 : S_TEXT/UTF8
  66. Codec ID/Info                            : UTF-8 Plain Text
  67. Duration                                 : 1 h 33 min
  68. Bit rate                                 : 87 b/s
  69. Count of elements                        : 1803
  70. Stream size                              : 59.7 KiB (0%)
  71. Title                                    : SDH
  72. Language                                 : English
  73. Default                                  : No
  74. Forced                                   : No
复制代码

你愿意嫁给他吗 Do.You.Take.This.Man.2016.1080p.WEBRip.DDP2.0.x264-NTG 6.82GB-2.png 135404hpp0oi29d523uly2.png 你愿意嫁给他吗 Do.You.Take.This.Man.2016.1080p.WEBRip.DDP2.0.x264-NTG 6.82GB-4.png






回复

使用道具 举报

懒得打字嘛,点击右侧快捷回复 【右侧内容,后台自定义】
您需要登录后才可以回帖 登录 | 立即加入

本版积分规则

Archiver|小黑屋| 蓝光电影网 |网站地图

Copyright © 2021 Comsenz Inc. Powered by 蓝光电影网

蓝光电影网

本站内容由用户自主分享和转载自互联网,转载目的在于传递更多信息,并不代表本网赞同其观点和对其真实性负责。

如有侵权、违反国家法律政策行为,请联系我们,我们会第一时间及时清除和处理!

举报反馈邮箱:[email protected]

快速回复 返回顶部 返回列表