找回密码

蓝光电影网

查看: 84|回复: 0

[剧情] 女儿的梦魇 A.Daughters.Nightmare.2014.1080p.AMZN.WEBRip.DDP5.1.x264-NIZAM 6.34GB

[复制链接]
蓝光币
382
发表于 2020-1-20 14:08:48 | 显示全部楼层 |阅读模式
女儿的梦魇 A.Daughters.Nightmare.2014.1080p.AMZN.WEBRip.DDP5.1.x264-NIZAM 6.34GB-1.png

译  名 女儿的梦魇
片  名 A Daughter's Nightmare
年  代 2014
产  地 加拿大
类  别 剧情 / 悬疑 / 惊悚
语  言 英语
上映日期 2014-05-03(美国)
IMDb评分  5.8/10 from 1026 users
IMDb链接  https://www.imdb.com/title/tt3103284
豆瓣评分 0/10 from 0 users
豆瓣链接 https://movie.douban.com/subject/25889460/
片  长 87分钟
导  演 Vic Sarin
主  演 艾米丽·奥斯蒙特 Emily Osment
       格雷格·萨克因 Gregg Sulkin
       Alex Zahara
       Giles Panton


标  签 惊悚 | 美国 | 犯罪 | 2014 | 无聊 | EmilyOsment | 艾米丽·奥斯蒙特 | 的osn

简  介  

  爱丽儿的母亲达娜清查丈夫的死时发现了一个奥秘人亚当。当达娜的身材状态起头恶化时,爱丽儿发觉到亚当能够有着不良的意图。
  1. Video
  2. ID                                       : 1
  3. Format                                   : AVC
  4. Format/Info                              : Advanced Video Codec
  5. Format profile                           : [email protected]
  6. Format settings                          : CABAC / 4 Ref Frames
  7. Format settings, CABAC                   : Yes
  8. Format settings, Reference frames        : 4 frames
  9. Codec ID                                 : V_MPEG4/ISO/AVC
  10. Duration                                 : 1 h 28 min
  11. Bit rate mode                            : Constant
  12. Bit rate                                 : 10 000 kb/s
  13. Width                                    : 1 920 pixels
  14. Height                                   : 1 080 pixels
  15. Display aspect ratio                     : 16:9
  16. Frame rate mode                          : Constant
  17. Frame rate                               : 23.976 (24000/1001) FPS
  18. Color space                              : YUV
  19. Chroma subsampling                       : 4:2:0
  20. Bit depth                                : 8 bits
  21. Scan type                                : Progressive
  22. Bits/(Pixel*Frame)                       : 0.201
  23. Stream size                              : 5.94 GiB (94%)
  24. Default                                  : Yes
  25. Forced                                   : No
  26. Color range                              : Limited
  27. Color primaries                          : BT.709
  28. Transfer characteristics                 : BT.709
  29. Matrix coefficients                      : BT.709

  30. Audio
  31. ID                                       : 2
  32. Format                                   : E-AC-3
  33. Format/Info                              : Enhanced AC-3
  34. Commercial name                          : Dolby Digital Plus
  35. Codec ID                                 : A_EAC3
  36. Duration                                 : 1 h 28 min
  37. Bit rate mode                            : Constant
  38. Bit rate                                 : 640 kb/s
  39. Channel(s)                               : 6 channels
  40. Channel layout                           : L R C LFE Ls Rs
  41. Sampling rate                            : 48.0 kHz
  42. Frame rate                               : 31.250 FPS (1536 SPF)
  43. Compression mode                         : Lossy
  44. Stream size                              : 406 MiB (6%)
  45. Title                                    : English
  46. Language                                 : English
  47. Service kind                             : Complete Main
  48. Default                                  : Yes
  49. Forced                                   : No

  50. Text
  51. ID                                       : 3
  52. Format                                   : UTF-8
  53. Codec ID                                 : S_TEXT/UTF8
  54. Codec ID/Info                            : UTF-8 Plain Text
  55. Duration                                 : 1 h 27 min
  56. Bit rate                                 : 67 b/s
  57. Count of elements                        : 1352
  58. Stream size                              : 43.4 KiB (0%)
  59. Title                                    : English [SDH]
  60. Language                                 : English
  61. Default                                  : No
  62. Forced                                   : No
复制代码

140518xwjmjkjz8qwjyyxz.png 女儿的梦魇 A.Daughters.Nightmare.2014.1080p.AMZN.WEBRip.DDP5.1.x264-NIZAM 6.34GB-3.png 女儿的梦魇 A.Daughters.Nightmare.2014.1080p.AMZN.WEBRip.DDP5.1.x264-NIZAM 6.34GB-4.png






回复

使用道具 举报

懒得打字嘛,点击右侧快捷回复 【右侧内容,后台自定义】
您需要登录后才可以回帖 登录 | 立即加入

本版积分规则

Archiver|小黑屋| 蓝光电影网 |网站地图

Copyright © 2021 Comsenz Inc. Powered by 蓝光电影网

蓝光电影网

本站内容由用户自主分享和转载自互联网,转载目的在于传递更多信息,并不代表本网赞同其观点和对其真实性负责。

如有侵权、违反国家法律政策行为,请联系我们,我们会第一时间及时清除和处理!

举报反馈邮箱:[email protected]

快速回复 返回顶部 返回列表