找回密码

蓝光电影网

查看: 101|回复: 0

[喜剧] 莱斯莉·琼斯:时间机器 Leslie.Jones.Time.Machine.2020.1080p.NF.WEBRip.DDP5.1.x264-monkee 1.69GB

[复制链接]
蓝光币
426
发表于 2020-1-20 14:22:20 | 显示全部楼层 |阅读模式
莱斯莉·琼斯:时候机械 Leslie.Jones.Time.Machine.2020.1080p.NF.WEBRip.DDP5.1.x264-monkee 1.69GB-1.png

译  名 莱斯莉·琼斯:时候机械
片  名 Leslie Jones: Time Machine
年  代 2020
产  地 美国
类  别 笑剧
语  言 英语
上映日期 2020-01-14(美国)
IMDb评分  5.0/10 from 171 users
IMDb链接  https://www.imdb.com/title/tt10795784
豆瓣评分 0/10 from 0 users
豆瓣链接 https://movie.douban.com/subject/34926013/
导  演 戴维·贝尼奥夫 David Benioff
编  剧 Leslie Jones
主  演 Leslie Jones


标  签 Stand-Up | 记载/真人 | 2020

简  介  

  暂无相关剧情先容
  1. Video
  2. ID                                       : 1
  3. Format                                   : AVC
  4. Format/Info                              : Advanced Video Codec
  5. Format profile                           : [email protected]
  6. Format settings                          : CABAC / 4 Ref Frames
  7. Format settings, CABAC                   : Yes
  8. Format settings, Reference frames        : 4 frames
  9. Codec ID                                 : V_MPEG4/ISO/AVC
  10. Duration                                 : 1 h 6 min
  11. Bit rate mode                            : Variable
  12. Bit rate                                 : 3 001 kb/s
  13. Maximum bit rate                         : 20.0 Mb/s
  14. Width                                    : 1 920 pixels
  15. Height                                   : 1 080 pixels
  16. Display aspect ratio                     : 16:9
  17. Frame rate mode                          : Constant
  18. Frame rate                               : 23.976 (24000/1001) FPS
  19. Color space                              : YUV
  20. Chroma subsampling                       : 4:2:0
  21. Bit depth                                : 8 bits
  22. Scan type                                : Progressive
  23. Bits/(Pixel*Frame)                       : 0.060
  24. Stream size                              : 1.39 GiB (82%)
  25. Writing library                          : x264 core 148 r2715 7e75228
  26. Encoding settings                        : cabac=1 / ref=4 / deblock=1:0:0 / analyse=0x3:0x111 / me=umh / subme=10 / psy=1 / psy_rd=1.00:0.00 / mixed_ref=1 / me_range=120 / chroma_me=1 / trellis=2 / 8x8dct=1 / cqm=0 / deadzone=21,11 / fast_pskip=1 / chroma_qp_offset=-2 / threads=8 / lookahead_threads=2 / sliced_threads=0 / nr=0 / decimate=1 / interlaced=0 / bluray_compat=0 / stitchable=1 / constrained_intra=0 / bframes=16 / b_pyramid=2 / b_adapt=2 / b_bias=0 / direct=3 / weightb=1 / open_gop=0 / weightp=2 / keyint=240 / keyint_min=121 / scenecut=0 / intra_refresh=0 / rc_lookahead=240 / rc=crf / mbtree=1 / crf=20.0 / qcomp=0.50 / qpmin=6 / qpmax=51 / qpstep=4 / vbv_maxrate=20000 / vbv_bufsize=25000 / crf_max=0.0 / nal_hrd=vbr / filler=0 / ip_ratio=1.40 / aq=1:0.80
  27. Default                                  : Yes
  28. Forced                                   : No

  29. Audio
  30. ID                                       : 2
  31. Format                                   : E-AC-3
  32. Format/Info                              : Enhanced AC-3
  33. Commercial name                          : Dolby Digital Plus
  34. Codec ID                                 : A_EAC3
  35. Duration                                 : 1 h 6 min
  36. Bit rate mode                            : Constant
  37. Bit rate                                 : 640 kb/s
  38. Channel(s)                               : 6 channels
  39. Channel layout                           : L R C LFE Ls Rs
  40. Sampling rate                            : 48.0 kHz
  41. Frame rate                               : 31.250 FPS (1536 SPF)
  42. Compression mode                         : Lossy
  43. Stream size                              : 303 MiB (18%)
  44. Title                                    : English
  45. Language                                 : English
  46. Service kind                             : Complete Main
  47. Default                                  : Yes
  48. Forced                                   : No

  49. Text #1
  50. ID                                       : 3
  51. Format                                   : UTF-8
  52. Codec ID                                 : S_TEXT/UTF8
  53. Codec ID/Info                            : UTF-8 Plain Text
  54. Duration                                 : 1 h 4 min
  55. Bit rate                                 : 61 b/s
  56. Count of elements                        : 841
  57. Stream size                              : 28.9 KiB (0%)
  58. Language                                 : English
  59. Default                                  : No
  60. Forced                                   : No

  61. Text #2
  62. ID                                       : 4
  63. Format                                   : UTF-8
  64. Codec ID                                 : S_TEXT/UTF8
  65. Codec ID/Info                            : UTF-8 Plain Text
  66. Duration                                 : 1 h 4 min
  67. Bit rate                                 : 65 b/s
  68. Count of elements                        : 919
  69. Stream size                              : 30.9 KiB (0%)
  70. Title                                    : SDH
  71. Language                                 : English
  72. Default                                  : No
  73. Forced                                   : No

  74. Text #3
  75. ID                                       : 5
  76. Format                                   : UTF-8
  77. Codec ID                                 : S_TEXT/UTF8
  78. Codec ID/Info                            : UTF-8 Plain Text
  79. Duration                                 : 1 h 5 min
  80. Bit rate                                 : 104 b/s
  81. Count of elements                        : 836
  82. Stream size                              : 50.4 KiB (0%)
  83. Language                                 : Arabic
  84. Default                                  : No
  85. Forced                                   : No

  86. Text #4
  87. ID                                       : 6
  88. Format                                   : UTF-8
  89. Codec ID                                 : S_TEXT/UTF8
  90. Codec ID/Info                            : UTF-8 Plain Text
  91. Duration                                 : 1 h 5 min
  92. Bit rate                                 : 58 b/s
  93. Count of elements                        : 825
  94. Stream size                              : 28.1 KiB (0%)
  95. Language                                 : Czech
  96. Default                                  : No
  97. Forced                                   : No

  98. Text #5
  99. ID                                       : 7
  100. Format                                   : UTF-8
  101. Codec ID                                 : S_TEXT/UTF8
  102. Codec ID/Info                            : UTF-8 Plain Text
  103. Duration                                 : 1 h 5 min
  104. Bit rate                                 : 54 b/s
  105. Count of elements                        : 777
  106. Stream size                              : 26.1 KiB (0%)
  107. Language                                 : Danish
  108. Default                                  : No
  109. Forced                                   : No

  110. Text #6
  111. ID                                       : 8
  112. Format                                   : UTF-8
  113. Codec ID                                 : S_TEXT/UTF8
  114. Codec ID/Info                            : UTF-8 Plain Text
  115. Duration                                 : 1 h 5 min
  116. Bit rate                                 : 50 b/s
  117. Count of elements                        : 821
  118. Stream size                              : 24.3 KiB (0%)
  119. Language                                 : German
  120. Default                                  : No
  121. Forced                                   : No

  122. Text #7
  123. ID                                       : 9
  124. Format                                   : UTF-8
  125. Codec ID                                 : S_TEXT/UTF8
  126. Codec ID/Info                            : UTF-8 Plain Text
  127. Duration                                 : 1 h 5 min
  128. Bit rate                                 : 89 b/s
  129. Count of elements                        : 806
  130. Stream size                              : 43.1 KiB (0%)
  131. Language                                 : Greek
  132. Default                                  : No
  133. Forced                                   : No

  134. Text #8
  135. ID                                       : 10
  136. Format                                   : UTF-8
  137. Codec ID                                 : S_TEXT/UTF8
  138. Codec ID/Info                            : UTF-8 Plain Text
  139. Duration                                 : 1 h 5 min
  140. Bit rate                                 : 53 b/s
  141. Count of elements                        : 794
  142. Stream size                              : 25.6 KiB (0%)
  143. Language                                 : Spanish
  144. Default                                  : No
  145. Forced                                   : No

  146. Text #9
  147. ID                                       : 11
  148. Format                                   : UTF-8
  149. Codec ID                                 : S_TEXT/UTF8
  150. Codec ID/Info                            : UTF-8 Plain Text
  151. Duration                                 : 1 h 5 min
  152. Bit rate                                 : 53 b/s
  153. Count of elements                        : 796
  154. Stream size                              : 25.7 KiB (0%)
  155. Title                                    : European
  156. Language                                 : Spanish
  157. Default                                  : No
  158. Forced                                   : No

  159. Text #10
  160. ID                                       : 12
  161. Format                                   : UTF-8
  162. Codec ID                                 : S_TEXT/UTF8
  163. Codec ID/Info                            : UTF-8 Plain Text
  164. Duration                                 : 1 h 5 min
  165. Bit rate                                 : 48 b/s
  166. Count of elements                        : 771
  167. Stream size                              : 23.2 KiB (0%)
  168. Language                                 : Finnish
  169. Default                                  : No
  170. Forced                                   : No

  171. Text #11
  172. ID                                       : 13
  173. Format                                   : UTF-8
  174. Codec ID                                 : S_TEXT/UTF8
  175. Codec ID/Info                            : UTF-8 Plain Text
  176. Duration                                 : 1 h 5 min
  177. Bit rate                                 : 55 b/s
  178. Count of elements                        : 822
  179. Stream size                              : 26.6 KiB (0%)
  180. Language                                 : French
  181. Default                                  : No
  182. Forced                                   : No

  183. Text #12
  184. ID                                       : 14
  185. Format                                   : UTF-8
  186. Codec ID                                 : S_TEXT/UTF8
  187. Codec ID/Info                            : UTF-8 Plain Text
  188. Duration                                 : 1 h 5 min
  189. Bit rate                                 : 84 b/s
  190. Count of elements                        : 836
  191. Stream size                              : 40.9 KiB (0%)
  192. Language                                 : Hebrew
  193. Default                                  : No
  194. Forced                                   : No

  195. Text #13
  196. ID                                       : 15
  197. Format                                   : UTF-8
  198. Codec ID                                 : S_TEXT/UTF8
  199. Codec ID/Info                            : UTF-8 Plain Text
  200. Duration                                 : 1 h 4 min
  201. Bit rate                                 : 56 b/s
  202. Count of elements                        : 802
  203. Stream size                              : 26.8 KiB (0%)
  204. Language                                 : Hungarian
  205. Default                                  : No
  206. Forced                                   : No

  207. Text #14
  208. ID                                       : 16
  209. Format                                   : UTF-8
  210. Codec ID                                 : S_TEXT/UTF8
  211. Codec ID/Info                            : UTF-8 Plain Text
  212. Duration                                 : 1 h 5 min
  213. Bit rate                                 : 55 b/s
  214. Count of elements                        : 784
  215. Stream size                              : 26.8 KiB (0%)
  216. Language                                 : Indonesian
  217. Default                                  : No
  218. Forced                                   : No

  219. Text #15
  220. ID                                       : 17
  221. Format                                   : UTF-8
  222. Codec ID                                 : S_TEXT/UTF8
  223. Codec ID/Info                            : UTF-8 Plain Text
  224. Duration                                 : 1 h 5 min
  225. Bit rate                                 : 51 b/s
  226. Count of elements                        : 766
  227. Stream size                              : 24.7 KiB (0%)
  228. Language                                 : Italian
  229. Default                                  : No
  230. Forced                                   : No

  231. Text #16
  232. ID                                       : 18
  233. Format                                   : UTF-8
  234. Codec ID                                 : S_TEXT/UTF8
  235. Codec ID/Info                            : UTF-8 Plain Text
  236. Duration                                 : 1 h 5 min
  237. Bit rate                                 : 53 b/s
  238. Count of elements                        : 786
  239. Stream size                              : 25.6 KiB (0%)
  240. Language                                 : Japanese
  241. Default                                  : No
  242. Forced                                   : No

  243. Text #17
  244. ID                                       : 19
  245. Format                                   : UTF-8
  246. Codec ID                                 : S_TEXT/UTF8
  247. Codec ID/Info                            : UTF-8 Plain Text
  248. Duration                                 : 1 h 5 min
  249. Bit rate                                 : 72 b/s
  250. Count of elements                        : 837
  251. Stream size                              : 34.8 KiB (0%)
  252. Language                                 : Korean
  253. Default                                  : No
  254. Forced                                   : No

  255. Text #18
  256. ID                                       : 20
  257. Format                                   : UTF-8
  258. Codec ID                                 : S_TEXT/UTF8
  259. Codec ID/Info                            : UTF-8 Plain Text
  260. Duration                                 : 1 h 5 min
  261. Bit rate                                 : 50 b/s
  262. Count of elements                        : 790
  263. Stream size                              : 24.3 KiB (0%)
  264. Language                                 : Norwegian Bokmal
  265. Default                                  : No
  266. Forced                                   : No

  267. Text #19
  268. ID                                       : 21
  269. Format                                   : UTF-8
  270. Codec ID                                 : S_TEXT/UTF8
  271. Codec ID/Info                            : UTF-8 Plain Text
  272. Duration                                 : 1 h 5 min
  273. Bit rate                                 : 49 b/s
  274. Count of elements                        : 798
  275. Stream size                              : 23.9 KiB (0%)
  276. Language                                 : Dutch
  277. Default                                  : No
  278. Forced                                   : No

  279. Text #20
  280. ID                                       : 22
  281. Format                                   : UTF-8
  282. Codec ID                                 : S_TEXT/UTF8
  283. Codec ID/Info                            : UTF-8 Plain Text
  284. Duration                                 : 1 h 5 min
  285. Bit rate                                 : 50 b/s
  286. Count of elements                        : 825
  287. Stream size                              : 24.2 KiB (0%)
  288. Language                                 : Polish
  289. Default                                  : No
  290. Forced                                   : No

  291. Text #21
  292. ID                                       : 23
  293. Format                                   : UTF-8
  294. Codec ID                                 : S_TEXT/UTF8
  295. Codec ID/Info                            : UTF-8 Plain Text
  296. Duration                                 : 1 h 4 min
  297. Bit rate                                 : 58 b/s
  298. Count of elements                        : 832
  299. Stream size                              : 27.9 KiB (0%)
  300. Language                                 : Portuguese
  301. Default                                  : No
  302. Forced                                   : No

  303. Text #22
  304. ID                                       : 24
  305. Format                                   : UTF-8
  306. Codec ID                                 : S_TEXT/UTF8
  307. Codec ID/Info                            : UTF-8 Plain Text
  308. Duration                                 : 1 h 5 min
  309. Bit rate                                 : 50 b/s
  310. Count of elements                        : 830
  311. Stream size                              : 24.2 KiB (0%)
  312. Title                                    : Brazilian
  313. Language                                 : Portuguese
  314. Default                                  : No
  315. Forced                                   : No

  316. Text #23
  317. ID                                       : 25
  318. Format                                   : UTF-8
  319. Codec ID                                 : S_TEXT/UTF8
  320. Codec ID/Info                            : UTF-8 Plain Text
  321. Duration                                 : 1 h 5 min
  322. Bit rate                                 : 61 b/s
  323. Count of elements                        : 799
  324. Stream size                              : 29.5 KiB (0%)
  325. Language                                 : Romanian
  326. Default                                  : No
  327. Forced                                   : No

  328. Text #24
  329. ID                                       : 26
  330. Format                                   : UTF-8
  331. Codec ID                                 : S_TEXT/UTF8
  332. Codec ID/Info                            : UTF-8 Plain Text
  333. Duration                                 : 1 h 5 min
  334. Bit rate                                 : 88 b/s
  335. Count of elements                        : 833
  336. Stream size                              : 42.7 KiB (0%)
  337. Language                                 : Russian
  338. Default                                  : No
  339. Forced                                   : No

  340. Text #25
  341. ID                                       : 27
  342. Format                                   : UTF-8
  343. Codec ID                                 : S_TEXT/UTF8
  344. Codec ID/Info                            : UTF-8 Plain Text
  345. Duration                                 : 1 h 5 min
  346. Bit rate                                 : 51 b/s
  347. Count of elements                        : 826
  348. Stream size                              : 24.8 KiB (0%)
  349. Language                                 : Swedish
  350. Default                                  : No
  351. Forced                                   : No

  352. Text #26
  353. ID                                       : 28
  354. Format                                   : UTF-8
  355. Codec ID                                 : S_TEXT/UTF8
  356. Codec ID/Info                            : UTF-8 Plain Text
  357. Duration                                 : 1 h 5 min
  358. Bit rate                                 : 140 b/s
  359. Count of elements                        : 837
  360. Stream size                              : 67.9 KiB (0%)
  361. Language                                 : Thai
  362. Default                                  : No
  363. Forced                                   : No

  364. Text #27
  365. ID                                       : 29
  366. Format                                   : UTF-8
  367. Codec ID                                 : S_TEXT/UTF8
  368. Codec ID/Info                            : UTF-8 Plain Text
  369. Duration                                 : 1 h 5 min
  370. Bit rate                                 : 55 b/s
  371. Count of elements                        : 792
  372. Stream size                              : 26.6 KiB (0%)
  373. Language                                 : Turkish
  374. Default                                  : No
  375. Forced                                   : No

  376. Text #28
  377. ID                                       : 30
  378. Format                                   : UTF-8
  379. Codec ID                                 : S_TEXT/UTF8
  380. Codec ID/Info                            : UTF-8 Plain Text
  381. Duration                                 : 1 h 5 min
  382. Bit rate                                 : 74 b/s
  383. Count of elements                        : 837
  384. Stream size                              : 35.8 KiB (0%)
  385. Language                                 : Vietnamese
  386. Default                                  : No
  387. Forced                                   : No

  388. Text #29
  389. ID                                       : 31
  390. Format                                   : UTF-8
  391. Codec ID                                 : S_TEXT/UTF8
  392. Codec ID/Info                            : UTF-8 Plain Text
  393. Duration                                 : 1 h 5 min
  394. Bit rate                                 : 57 b/s
  395. Count of elements                        : 837
  396. Stream size                              : 27.8 KiB (0%)
  397. Title                                    : Simplified
  398. Language                                 : Chinese
  399. Default                                  : No
  400. Forced                                   : No

  401. Text #30
  402. ID                                       : 32
  403. Format                                   : UTF-8
  404. Codec ID                                 : S_TEXT/UTF8
  405. Codec ID/Info                            : UTF-8 Plain Text
  406. Duration                                 : 1 h 5 min
  407. Bit rate                                 : 55 b/s
  408. Count of elements                        : 838
  409. Stream size                              : 26.8 KiB (0%)
  410. Title                                    : Traditional
  411. Language                                 : Chinese
  412. Default                                  : No
  413. Forced                                   : No
复制代码

莱斯莉·琼斯:时候机械 Leslie.Jones.Time.Machine.2020.1080p.NF.WEBRip.DDP5.1.x264-monkee 1.69GB-2.png 142147le80ywsewj6w088i.png 莱斯莉·琼斯:时候机械 Leslie.Jones.Time.Machine.2020.1080p.NF.WEBRip.DDP5.1.x264-monkee 1.69GB-4.png






回复

使用道具 举报

懒得打字嘛,点击右侧快捷回复 【右侧内容,后台自定义】
您需要登录后才可以回帖 登录 | 立即加入

本版积分规则

Archiver|小黑屋| 蓝光电影网 |网站地图

Copyright © 2021 Comsenz Inc. Powered by 蓝光电影网

蓝光电影网

本站内容由用户自主分享和转载自互联网,转载目的在于传递更多信息,并不代表本网赞同其观点和对其真实性负责。

如有侵权、违反国家法律政策行为,请联系我们,我们会第一时间及时清除和处理!

举报反馈邮箱:[email protected]

快速回复 返回顶部 返回列表