找回密码

蓝光电影网

查看: 236|回复: 0

[爱情] 午夜之吻 A.Midnight.Kiss.2018.1080p.AMZN.WEBRip.DDP2.0.x264-DBS 5.45GB

[复制链接]
蓝光币
426
发表于 2020-1-20 14:23:10 | 显示全部楼层 |阅读模式
半夜之吻 A.Midnight.Kiss.2018.1080p.AMZN.WEBRip.DDP2.0.x264-DBS 5.45GB-1.png

译  名 半夜之吻
片  名 A Midnight Kiss
年  代 2018
产  地 美国
类  别 恋爱
语  言 英语
上映日期 2018-12-29(美国)
IMDb评分  6.2/10 from 502 users
IMDb链接  https://www.imdb.com/title/tt9028890
豆瓣评分 0/10 from 0 users
豆瓣链接 https://movie.douban.com/subject/30364428/
导  演 J.B. Sugar
主  演 杰森·塞尔马克 Jason Cermak
       阿瓦·格雷斯·库珀 Ava Grace Cooper
       阿黛莱德·凯恩 Adelaide Kane
       Carlos PenaVega
       艾德里安·佩特里 Adrian Petriw


标  签 Hallmark

简  介  

  "With only one week to prepare, Mia Pearson and her family of party planners are given the biggest job in their company's history: a New Year's Eve party for tech entrepreneur Kate Clark. But when her brother breaks his leg and her parents head off on a planned vacation, Mia must reluctantly enlist the help of her brother's visiting college buddy, David Campos (PenaVega), to help her pull off the event which just so happens to fall on her favorite day of the year. But what Mia didn't plan on was falling in love in the process."
  1. Video
  2. ID                                       : 1
  3. Format                                   : AVC
  4. Format/Info                              : Advanced Video Codec
  5. Format profile                           : [email protected]
  6. Format settings                          : CABAC / 4 Ref Frames
  7. Format settings, CABAC                   : Yes
  8. Format settings, Reference frames        : 4 frames
  9. Codec ID                                 : V_MPEG4/ISO/AVC
  10. Duration                                 : 1 h 21 min
  11. Bit rate mode                            : Constant
  12. Bit rate                                 : 9 353 kb/s
  13. Nominal bit rate                         : 10 000 kb/s
  14. Width                                    : 1 920 pixels
  15. Height                                   : 1 080 pixels
  16. Display aspect ratio                     : 16:9
  17. Frame rate mode                          : Constant
  18. Frame rate                               : 23.976 (24000/1001) FPS
  19. Color space                              : YUV
  20. Chroma subsampling                       : 4:2:0
  21. Bit depth                                : 8 bits
  22. Scan type                                : Progressive
  23. Bits/(Pixel*Frame)                       : 0.188
  24. Stream size                              : 5.32 GiB (98%)
  25. Default                                  : Yes
  26. Forced                                   : No
  27. Color range                              : Limited
  28. Color primaries                          : BT.709
  29. Transfer characteristics                 : BT.709
  30. Matrix coefficients                      : BT.709

  31. Audio
  32. ID                                       : 2
  33. Format                                   : E-AC-3
  34. Format/Info                              : Enhanced AC-3
  35. Commercial name                          : Dolby Digital Plus
  36. Codec ID                                 : A_EAC3
  37. Duration                                 : 1 h 21 min
  38. Bit rate mode                            : Constant
  39. Bit rate                                 : 224 kb/s
  40. Channel(s)                               : 2 channels
  41. Channel layout                           : L R
  42. Sampling rate                            : 48.0 kHz
  43. Frame rate                               : 31.250 FPS (1536 SPF)
  44. Compression mode                         : Lossy
  45. Stream size                              : 131 MiB (2%)
  46. Language                                 : English
  47. Service kind                             : Complete Main
  48. Default                                  : Yes
  49. Forced                                   : No

  50. Text #1
  51. ID                                       : 3
  52. Format                                   : UTF-8
  53. Codec ID                                 : S_TEXT/UTF8
  54. Codec ID/Info                            : UTF-8 Plain Text
  55. Duration                                 : 1 h 20 min
  56. Bit rate                                 : 96 b/s
  57. Count of elements                        : 1906
  58. Stream size                              : 57.3 KiB (0%)
  59. Language                                 : English
  60. Default                                  : No
  61. Forced                                   : No

  62. Text #2
  63. ID                                       : 4
  64. Format                                   : UTF-8
  65. Codec ID                                 : S_TEXT/UTF8
  66. Codec ID/Info                            : UTF-8 Plain Text
  67. Duration                                 : 1 h 20 min
  68. Bit rate                                 : 98 b/s
  69. Count of elements                        : 1976
  70. Stream size                              : 58.2 KiB (0%)
  71. Title                                    : SDH
  72. Language                                 : English
  73. Default                                  : No
  74. Forced                                   : No
复制代码

半夜之吻 A.Midnight.Kiss.2018.1080p.AMZN.WEBRip.DDP2.0.x264-DBS 5.45GB-2.png 半夜之吻 A.Midnight.Kiss.2018.1080p.AMZN.WEBRip.DDP2.0.x264-DBS 5.45GB-3.png 半夜之吻 A.Midnight.Kiss.2018.1080p.AMZN.WEBRip.DDP2.0.x264-DBS 5.45GB-4.png






回复

使用道具 举报

懒得打字嘛,点击右侧快捷回复 【右侧内容,后台自定义】
您需要登录后才可以回帖 登录 | 立即加入

本版积分规则

Archiver|小黑屋| 蓝光电影网 |网站地图

Copyright © 2021 Comsenz Inc. Powered by 蓝光电影网

蓝光电影网

本站内容由用户自主分享和转载自互联网,转载目的在于传递更多信息,并不代表本网赞同其观点和对其真实性负责。

如有侵权、违反国家法律政策行为,请联系我们,我们会第一时间及时清除和处理!

举报反馈邮箱:[email protected]

快速回复 返回顶部 返回列表