找回密码

蓝光电影网

查看: 323|回复: 3

[剧情] 绅士联盟/巴兹尔迪尔登的地下伦敦之绅士联盟 The.League.of.Gentlemen.1960.1080p.BluRay.x264-GHOULS 7.66GB

[复制链接]
蓝光币
382
发表于 2020-1-20 14:26:26 | 显示全部楼层 |阅读模式
名流同盟/巴兹尔迪尔登的地下伦敦之名流同盟 The.League.of.Gentlemen.1960.1080p.BluRay.x264-GHOULS 7.66GB-1.png

译  名 名流同盟 / 巴兹尔迪尔登的地下伦敦之名流同盟
片  名 The League of Gentlemen
年  代 1960
产  地 英国
类  别 剧情 / 笑剧 / 犯罪 / 冒险
语  言 英语
上映日期 1960-04-05
IMDb评分  7.3/10 from 3448 users
IMDb链接  https://www.imdb.com/title/tt0052997
豆瓣评分 7.7/10 from 150 users
豆瓣链接 https://movie.douban.com/subject/3105237/
片  长 116 分钟
导  演 巴兹尔·迪尔登 Basil Dearden
编  剧 约翰·博兰 John Boland / 布莱恩·福布斯 Bryan Forbes
主  演 奈吉尔·帕特里克 Nigel Patrick
       布莱恩·福布斯 Bryan Forbes
       杰克·霍金斯 Jack Hawkins
       罗杰·莱伍赛 Roger Livesey
       理查德·阿滕伯勒 Richard Attenborough
       基隆·摩尔 Kieron Moore


标  签 英国 | 犯罪 | 英国电影 | BasilDearden | CC | 1960s | 1960 | UK

简  介  

  在影片里杰克·霍肯斯归纳了一个被迫退休的上校,请一个败北的前英国陆军主干来帮他抢劫一百万英镑——这个冒险复杂的计划同时还牵扯进了军队。强大的演员声势包括了英国最著名的演员们:理查德·阿顿布罗夫, 布莱恩·福比斯和罗杰·里弗斯。让这部里程碑式的电影敏捷蹿红并影响了今后好莱坞无数的同范例影片。
  1. Video
  2. ID                                       : 1
  3. Format                                   : AVC
  4. Format/Info                              : Advanced Video Codec
  5. Format profile                           : [email protected]
  6. Format settings                          : CABAC / 4 Ref Frames
  7. Format settings, CABAC                   : Yes
  8. Format settings, Reference frames        : 4 frames
  9. Codec ID                                 : V_MPEG4/ISO/AVC
  10. Duration                                 : 1 h 53 min
  11. Bit rate                                 : 9 305 kb/s
  12. Width                                    : 1 888 pixels
  13. Height                                   : 1 080 pixels
  14. Display aspect ratio                     : 16:9
  15. Frame rate mode                          : Constant
  16. Frame rate                               : 24.000 FPS
  17. Color space                              : YUV
  18. Chroma subsampling                       : 4:2:0
  19. Bit depth                                : 8 bits
  20. Scan type                                : Progressive
  21. Bits/(Pixel*Frame)                       : 0.190
  22. Stream size                              : 7.39 GiB (97%)
  23. Writing library                          : x264 core 158 r2988 7817004
  24. Encoding settings                        : cabac=1 / ref=4 / deblock=1:-3:-3 / analyse=0x3:0x133 / me=umh / subme=9 / psy=1 / psy_rd=1.00:0.00 / mixed_ref=1 / me_range=24 / chroma_me=1 / trellis=1 / 8x8dct=1 / cqm=0 / deadzone=21,11 / fast_pskip=0 / chroma_qp_offset=-2 / threads=24 / lookahead_threads=4 / sliced_threads=0 / nr=0 / decimate=1 / interlaced=0 / bluray_compat=0 / constrained_intra=0 / bframes=8 / b_pyramid=2 / b_adapt=2 / b_bias=0 / direct=3 / weightb=1 / open_gop=0 / weightp=2 / keyint=250 / keyint_min=24 / scenecut=40 / intra_refresh=0 / rc_lookahead=60 / rc=2pass / mbtree=1 / bitrate=9305 / ratetol=1.0 / qcomp=0.60 / qpmin=0 / qpmax=69 / qpstep=4 / cplxblur=20.0 / qblur=0.5 / vbv_maxrate=62500 / vbv_bufsize=78125 / nal_hrd=none / filler=0 / ip_ratio=1.40 / aq=1:1.00
  25. Default                                  : Yes
  26. Forced                                   : No

  27. Audio
  28. ID                                       : 2
  29. Format                                   : FLAC
  30. Format/Info                              : Free Lossless Audio Codec
  31. Codec ID                                 : A_FLAC
  32. Duration                                 : 1 h 53 min
  33. Bit rate mode                            : Variable
  34. Bit rate                                 : 331 kb/s
  35. Channel(s)                               : 2 channels
  36. Channel layout                           : L R
  37. Sampling rate                            : 48.0 kHz
  38. Frame rate                               : 10.417 FPS (4608 SPF)
  39. Bit depth                                : 16 bits
  40. Compression mode                         : Lossless
  41. Stream size                              : 269 MiB (3%)
  42. Writing library                          : Lavf58.29.100
  43. Language                                 : English
  44. Default                                  : Yes
  45. Forced                                   : No

  46. Menu
  47. 00:00:00.000                             : en:Chapter 01
  48. 00:09:05.042                             : en:Chapter 02
  49. 00:19:17.583                             : en:Chapter 03
  50. 00:32:21.375                             : en:Chapter 04
  51. 00:44:42.875                             : en:Chapter 05
  52. 00:52:08.792                             : en:Chapter 06
  53. 01:02:03.292                             : en:Chapter 07
  54. 01:14:22.333                             : en:Chapter 08
  55. 01:23:00.208                             : en:Chapter 09
  56. 01:33:08.208                             : en:Chapter 10
  57. 01:37:10.167                             : en:Chapter 11
  58. 01:48:52.750                             : en:Chapter 12
复制代码

名流同盟/巴兹尔迪尔登的地下伦敦之名流同盟 The.League.of.Gentlemen.1960.1080p.BluRay.x264-GHOULS 7.66GB-2.png






回复

使用道具 举报

懒得打字嘛,点击右侧快捷回复 【右侧内容,后台自定义】
您需要登录后才可以回帖 登录 | 立即加入

本版积分规则

Archiver|小黑屋| 蓝光电影网 |网站地图

Copyright © 2021 Comsenz Inc. Powered by 蓝光电影网

蓝光电影网

本站内容由用户自主分享和转载自互联网,转载目的在于传递更多信息,并不代表本网赞同其观点和对其真实性负责。

如有侵权、违反国家法律政策行为,请联系我们,我们会第一时间及时清除和处理!

举报反馈邮箱:[email protected]

快速回复 返回顶部 返回列表