找回密码

蓝光电影网

查看: 221|回复: 0

[动画] 少年肯尼亚 Kenya.Boy.1984.JAPANESE.1080p.AMZN.WEBRip.DDP2.0.x264-ETHiCS 10.16GB

[复制链接]
蓝光币
382
发表于 2020-1-20 14:33:41 | 显示全部楼层 |阅读模式
少年肯尼亚 Kenya.Boy.1984.JAPANESE.1080p.AMZN.WEBRip.DDP2.0.x264-ETHiCS 10.16GB-1.png

译  名 少年肯尼亚 / Shounen Keniya
片  名 少年ケニヤ
年  代 1984
产  地 日本
类  别 动画
语  言 日语
上映日期 1984
IMDb评分  7.0/10 from 94 users
IMDb链接  https://www.imdb.com/title/tt0125494
豆瓣评分 0/10 from 0 users
豆瓣链接 https://movie.douban.com/subject/4821027/
片  长 109分钟
导  演 大林宣彦 / 今沢哲男
编  剧 桂千穂 Chiho Katsura / 内藤诚 / 剑持亘
主  演 高柳良一
       原田知世 Tomoyo Harada
       大塚周夫 Chikao ?tsuka


标  签 动画 | 日本动画 | 日本 | 大林宣彦 | 动画长片 | 动画电影 | 戏院版(自力) | 戏院

简  介  

  1984年3月10日に、『幻魔大戦』に続く角川映画製作のアニメ第二作として公開される。原作者の山水本身がオープニングとラストシーンの実写映像に出演した。監督にはこれまでに角川映画で3作品を監督して来た実写畑の大林宣彦が升引され、大林は商業用アニメ映画でありながら、さまざまな実験的?前衛的な手法が取り入れた。さらに大林は「アマチュアの感性も取り入れたい」とも発案し、アニメーターが一般公募され、これにまだ高校生だったうるし原智志や細田守らが及格。細田は不加入だったものの、実際にうるし原がアニメーターとして作画に加入している。キャストワタル - 高柳良一ケイト - 原田知世ゼガ - 大塚周夫シュタイン博士 - 八奈見乗児村上大介 - 井上真樹夫村上葉子 - 増山江威子フォン?ゲルヒン - 永井一郎ワカギ(マサイ族) - 塩沢兼人グレ(ポラ族) - 内海賢二アゲラ(トカゲ族) - 柴田秀勝スタッフ製作:角川春樹、今田智憲監督:大林宣彦配合監督:今沢哲男剧本:桂千穂、内藤誠、剣持亘作画監督:我妻宏音楽:宇崎竜童主題歌:渡辺典子「少年ケニヤ」アニメーション建造:東映動画
  1. Video
  2. ID                                       : 1
  3. Format                                   : AVC
  4. Format/Info                              : Advanced Video Codec
  5. Format profile                           : [email protected]
  6. Format settings                          : CABAC / 4 Ref Frames
  7. Format settings, CABAC                   : Yes
  8. Format settings, Reference frames        : 4 frames
  9. Codec ID                                 : V_MPEG4/ISO/AVC
  10. Duration                                 : 1 h 49 min
  11. Bit rate                                 : 13.1 Mb/s
  12. Width                                    : 1 920 pixels
  13. Height                                   : 1 040 pixels
  14. Display aspect ratio                     : 1.85:1
  15. Frame rate mode                          : Constant
  16. Frame rate                               : 23.976 (24000/1001) FPS
  17. Color space                              : YUV
  18. Chroma subsampling                       : 4:2:0
  19. Bit depth                                : 8 bits
  20. Scan type                                : Progressive
  21. Bits/(Pixel*Frame)                       : 0.274
  22. Stream size                              : 9.99 GiB (98%)
  23. Default                                  : Yes
  24. Forced                                   : No
  25. Color range                              : Limited
  26. Color primaries                          : BT.709
  27. Transfer characteristics                 : BT.709
  28. Matrix coefficients                      : BT.709

  29. Audio
  30. ID                                       : 2
  31. Format                                   : E-AC-3
  32. Format/Info                              : Enhanced AC-3
  33. Commercial name                          : Dolby Digital Plus
  34. Codec ID                                 : A_EAC3
  35. Duration                                 : 1 h 49 min
  36. Bit rate mode                            : Constant
  37. Bit rate                                 : 224 kb/s
  38. Channel(s)                               : 2 channels
  39. Channel layout                           : L R
  40. Sampling rate                            : 48.0 kHz
  41. Frame rate                               : 31.250 FPS (1536 SPF)
  42. Compression mode                         : Lossy
  43. Stream size                              : 175 MiB (2%)
  44. Language                                 : Japanese
  45. Service kind                             : Complete Main
  46. Default                                  : Yes
  47. Forced                                   : No

  48. Text
  49. ID                                       : 3
  50. Format                                   : UTF-8
  51. Codec ID                                 : S_TEXT/UTF8
  52. Codec ID/Info                            : UTF-8 Plain Text
  53. Duration                                 : 1 h 47 min
  54. Bit rate                                 : 27 b/s
  55. Count of elements                        : 718
  56. Stream size                              : 21.3 KiB (0%)
  57. Language                                 : English
  58. Default                                  : Yes
  59. Forced                                   : No
复制代码

少年肯尼亚 Kenya.Boy.1984.JAPANESE.1080p.AMZN.WEBRip.DDP2.0.x264-ETHiCS 10.16GB-2.png 少年肯尼亚 Kenya.Boy.1984.JAPANESE.1080p.AMZN.WEBRip.DDP2.0.x264-ETHiCS 10.16GB-3.png 少年肯尼亚 Kenya.Boy.1984.JAPANESE.1080p.AMZN.WEBRip.DDP2.0.x264-ETHiCS 10.16GB-4.png






回复

使用道具 举报

懒得打字嘛,点击右侧快捷回复 【右侧内容,后台自定义】
您需要登录后才可以回帖 登录 | 立即加入

本版积分规则

Archiver|小黑屋| 蓝光电影网 |网站地图

Copyright © 2021 Comsenz Inc. Powered by 蓝光电影网

蓝光电影网

本站内容由用户自主分享和转载自互联网,转载目的在于传递更多信息,并不代表本网赞同其观点和对其真实性负责。

如有侵权、违反国家法律政策行为,请联系我们,我们会第一时间及时清除和处理!

举报反馈邮箱:[email protected]

快速回复 返回顶部 返回列表