找回密码

蓝光电影网

查看: 104|回复: 0

[惊悚] 狼血仁心/慈悲 Mercy.2014.1080p.WEB-DL.DD5.1.H264-FGT 2.29GB

[复制链接]
蓝光币
382
发表于 2020-1-20 14:42:36 | 显示全部楼层 |阅读模式
狼血仁心/慈善 Mercy.2014.1080p.WEB-DL.DD5.1.H264-FGT 2.29GB-1.png

译  名 狼血仁心 / 慈善 / 梅西的诅咒 / 狼神奶奶启迪录 / 祖母
片  名 Mercy
年  代 2014
产  地 美国
类  别 惊悚 / 可骇
语  言 英语
上映日期 2014
IMDb评分  5.0/10 from 4675 users
IMDb链接  https://www.imdb.com/title/tt2481496
豆瓣评分 0/10 from 0 users
豆瓣链接 https://movie.douban.com/subject/22519099/
导  演 Peter Cornwell
编  剧 麦特?格林伯格 Matt Greenberg / 斯蒂芬·金 Stephen King
主  演 钱德勒·里格斯 Chandler Riggs
       迪伦·麦克德莫特 Dylan McDermott
       马克·杜普拉斯 Mark Duplass
       弗兰西丝·奥康纳 Frances O'Connor
       乔尔·考特尼 Joel Courtney
       阿曼达·沃尔什 Amanda Walsh
       雪莉·奈特 Shirley Knight
       乔·埃根德尔 Joe Egender
       Jack Carter
       Chris Browning


标  签 可骇 | 惊悚 | 斯蒂芬·金 | 剧情 | 美国电影 | 迪伦·麦克德莫特 | 美国 | 改编

简  介  

  A single mom and her two boys help take care of their grandmother with mystical powers.
  1. Video
  2. ID                                       : 1
  3. Format                                   : AVC
  4. Format/Info                              : Advanced Video Codec
  5. Format profile                           : [email protected]
  6. Format settings                          : CABAC / 5 Ref Frames
  7. Format settings, CABAC                   : Yes
  8. Format settings, Reference frames        : 5 frames
  9. Codec ID                                 : V_MPEG4/ISO/AVC
  10. Duration                                 : 1 h 18 min
  11. Bit rate                                 : 3 783 kb/s
  12. Width                                    : 1 916 pixels
  13. Height                                   : 796 pixels
  14. Display aspect ratio                     : 2.40:1
  15. Frame rate mode                          : Constant
  16. Frame rate                               : 23.976 (23976/1000) FPS
  17. Color space                              : YUV
  18. Chroma subsampling                       : 4:2:0
  19. Bit depth                                : 8 bits
  20. Scan type                                : Progressive
  21. Bits/(Pixel*Frame)                       : 0.103
  22. Stream size                              : 2.08 GiB (91%)
  23. Title                                    : Mercy.2014.1080p.WEB-DL.DD5.1.H264-FGT
  24. Language                                 : English
  25. Default                                  : Yes
  26. Forced                                   : No
  27. Color range                              : Limited
  28. Color primaries                          : BT.709
  29. Transfer characteristics                 : BT.709
  30. Matrix coefficients                      : BT.709

  31. Audio
  32. ID                                       : 2
  33. Format                                   : AC-3
  34. Format/Info                              : Audio Coding 3
  35. Commercial name                          : Dolby Digital
  36. Codec ID                                 : A_AC3
  37. Duration                                 : 1 h 18 min
  38. Bit rate mode                            : Constant
  39. Bit rate                                 : 384 kb/s
  40. Channel(s)                               : 6 channels
  41. Channel layout                           : L R C LFE Ls Rs
  42. Sampling rate                            : 48.0 kHz
  43. Frame rate                               : 31.250 FPS (1536 SPF)
  44. Bit depth                                : 16 bits
  45. Compression mode                         : Lossy
  46. Stream size                              : 216 MiB (9%)
  47. Title                                    : Mercy.2014.1080p.WEB-DL.DD5.1.H264-FGT
  48. Language                                 : English
  49. Service kind                             : Complete Main
  50. Default                                  : Yes
  51. Forced                                   : No

  52. Menu
  53. 00:00:00.000                             : en:1
  54. 00:04:31.000                             : en:2
  55. 00:09:00.000                             : en:3
  56. 00:14:49.000                             : en:4
  57. 00:19:05.000                             : en:5
  58. 00:24:38.000                             : en:6
  59. 00:29:11.000                             : en:7
  60. 00:33:56.000                             : en:8
  61. 00:38:33.000                             : en:9
  62. 00:43:59.000                             : en:10
  63. 00:48:39.000                             : en:11
  64. 00:53:18.000                             : en:12
  65. 00:58:40.000                             : en:13
  66. 01:02:55.000                             : en:14
  67. 01:06:17.000                             : en:15
  68. 01:11:20.000                             : en:16
  69. 01:15:04.000                             : en:17
复制代码

狼血仁心/慈善 Mercy.2014.1080p.WEB-DL.DD5.1.H264-FGT 2.29GB-2.png 狼血仁心/慈善 Mercy.2014.1080p.WEB-DL.DD5.1.H264-FGT 2.29GB-3.png 狼血仁心/慈善 Mercy.2014.1080p.WEB-DL.DD5.1.H264-FGT 2.29GB-4.png






回复

使用道具 举报

懒得打字嘛,点击右侧快捷回复 【右侧内容,后台自定义】
您需要登录后才可以回帖 登录 | 立即加入

本版积分规则

Archiver|小黑屋| 蓝光电影网 |网站地图

Copyright © 2021 Comsenz Inc. Powered by 蓝光电影网

蓝光电影网

本站内容由用户自主分享和转载自互联网,转载目的在于传递更多信息,并不代表本网赞同其观点和对其真实性负责。

如有侵权、违反国家法律政策行为,请联系我们,我们会第一时间及时清除和处理!

举报反馈邮箱:[email protected]

快速回复 返回顶部 返回列表