找回密码

蓝光电影网

查看: 93|回复: 0

[剧情] 我们遗忘的比所知道的更多 Weve.Forgotten.More.Than.We.Ever.Knew.2017.1080p.WEB-DL.DD5.1.H264-FGT 3.05GB

[复制链接]
蓝光币
382
发表于 2020-1-20 14:46:35 | 显示全部楼层 |阅读模式
我们忘记的比所晓得的更多 Weve.Forgotten.More.Than.We.Ever.Knew.2017.1080p.WEB-DL.DD5.1.H264-FGT 3.05GB-1.png

译  名 我们忘记的比所晓得的更多
片  名 We've Forgotten More Than We Ever Knew
年  代 2016
产  地 美国
类  别 剧情 / 科幻
语  言 英语
上映日期 2016-08-28(人行道电影节)
IMDb评分  5.1/10 from 348 users
IMDb链接  https://www.imdb.com/title/tt4499572
豆瓣评分 0/10 from 0 users
豆瓣链接 https://movie.douban.com/subject/26992365/
片  长 98分钟
导  演 Thomas Woodrow
编  剧 Thomas Woodrow
主  演 道格·琼斯 Doug Jones
       路易莎·克劳瑟 Louisa Krause
       亚伦·斯坦福 Aaron Stanford


标  签 比莉·派佩

简  介  

  A Man and a Woman wander through a hostile wilderness in a far-away world. One day, they stumble upon a mysterious set of Structures, which will complicate their lives both for good and ill.
  1. Video
  2. ID                                       : 1
  3. Format                                   : AVC
  4. Format/Info                              : Advanced Video Codec
  5. Format profile                           : [email protected]
  6. Format settings                          : CABAC / 5 Ref Frames
  7. Format settings, CABAC                   : Yes
  8. Format settings, Reference frames        : 5 frames
  9. Codec ID                                 : V_MPEG4/ISO/AVC
  10. Duration                                 : 1 h 28 min
  11. Bit rate                                 : 4 558 kb/s
  12. Width                                    : 1 920 pixels
  13. Height                                   : 816 pixels
  14. Display aspect ratio                     : 2.35:1
  15. Frame rate mode                          : Constant
  16. Frame rate                               : 23.976 (23976/1000) FPS
  17. Color space                              : YUV
  18. Chroma subsampling                       : 4:2:0
  19. Bit depth                                : 8 bits
  20. Scan type                                : Progressive
  21. Bits/(Pixel*Frame)                       : 0.121
  22. Stream size                              : 2.81 GiB (92%)
  23. Title                                    : Weve.Forgotten.More.Than.We.Ever.Knew.2017.1080p.WEB-DL.DD5.1.H.264-FGT
  24. Language                                 : English
  25. Default                                  : Yes
  26. Forced                                   : No
  27. Color range                              : Limited
  28. Color primaries                          : BT.709
  29. Transfer characteristics                 : BT.709
  30. Matrix coefficients                      : BT.709

  31. Audio
  32. ID                                       : 2
  33. Format                                   : AC-3
  34. Format/Info                              : Audio Coding 3
  35. Commercial name                          : Dolby Digital
  36. Codec ID                                 : A_AC3
  37. Duration                                 : 1 h 28 min
  38. Bit rate mode                            : Constant
  39. Bit rate                                 : 384 kb/s
  40. Channel(s)                               : 6 channels
  41. Channel layout                           : L R C LFE Ls Rs
  42. Sampling rate                            : 48.0 kHz
  43. Frame rate                               : 31.250 FPS (1536 SPF)
  44. Bit depth                                : 16 bits
  45. Compression mode                         : Lossy
  46. Stream size                              : 243 MiB (8%)
  47. Title                                    : Weve.Forgotten.More.Than.We.Ever.Knew.2017.1080p.WEB-DL.DD5.1.H.264-FGT
  48. Language                                 : English
  49. Service kind                             : Complete Main
  50. Default                                  : Yes
  51. Forced                                   : No

  52. Text
  53. ID                                       : 3
  54. Format                                   : UTF-8
  55. Codec ID                                 : S_TEXT/UTF8
  56. Codec ID/Info                            : UTF-8 Plain Text
  57. Duration                                 : 1 h 26 min
  58. Bit rate                                 : 20 b/s
  59. Count of elements                        : 655
  60. Stream size                              : 13.3 KiB (0%)
  61. Language                                 : English
  62. Default                                  : Yes
  63. Forced                                   : No

  64. Menu
  65. 00:00:00.000                             : en:Chapter One
  66. 00:15:00.000                             : en:Chapter Two
  67. 00:30:00.000                             : en:Chapter Three
  68. 00:45:00.000                             : en:Chapter Four
  69. 01:00:00.000                             : en:Chapter Five
  70. 01:15:00.000                             : en:Chapter Six
复制代码

我们忘记的比所晓得的更多 Weve.Forgotten.More.Than.We.Ever.Knew.2017.1080p.WEB-DL.DD5.1.H264-FGT 3.05GB-2.png 我们忘记的比所晓得的更多 Weve.Forgotten.More.Than.We.Ever.Knew.2017.1080p.WEB-DL.DD5.1.H264-FGT 3.05GB-3.png 144618jlblqvo66f8z6fdy.png






回复

使用道具 举报

懒得打字嘛,点击右侧快捷回复 【右侧内容,后台自定义】
您需要登录后才可以回帖 登录 | 立即加入

本版积分规则

Archiver|小黑屋| 蓝光电影网 |网站地图

Copyright © 2021 Comsenz Inc. Powered by 蓝光电影网

蓝光电影网

本站内容由用户自主分享和转载自互联网,转载目的在于传递更多信息,并不代表本网赞同其观点和对其真实性负责。

如有侵权、违反国家法律政策行为,请联系我们,我们会第一时间及时清除和处理!

举报反馈邮箱:[email protected]

快速回复 返回顶部 返回列表