找回密码

蓝光电影网

查看: 139|回复: 0

[剧情] 饶舌对决 Vs.2018.1080p.WEB-DL.DD5.1.H264-FGT 3.43GB

[复制链接]
蓝光币
426
发表于 2020-1-20 14:47:16 | 显示全部楼层 |阅读模式
饶舌对决 Vs.2018.1080p.WEB-DL.DD5.1.H264-FGT 3.43GB-1.png

译  名 饶舌对决
片  名 VS.
年  代 2018
产  地 英国
类  别 剧情 / 音乐
语  言 英语
上映日期 2018-10-19(英国)
IMDb评分  5.7/10 from 333 users
IMDb链接  https://www.imdb.com/title/tt4177018
豆瓣评分 0/10 from 0 users
豆瓣链接 https://movie.douban.com/subject/30429747/
片  长 99分钟
导  演 Ed Lilly
编  剧 Daniel Hayes / Ed Lilly
主  演 乔瓦恩·韦德 Joivan Wade
       Fola Evans-Akingbola
       鲁斯·西恩 Ruth Sheen
       尼古拉斯·平诺克 Nicholas Pinnock
       康纳·斯温德尔 Connor Swindells
       维克托里娅·菲斯 Viktorija Faith
       埃米莉·塔夫 Emily Taaffe
       Elliot Barnes-Worrell
       Kola Bokinni
       Paige Meade


简  介  

  VS. is an urban rites of passage drama set in the hostile and exciting UK rap battle scene.
  1. Video
  2. ID                                       : 1
  3. Format                                   : AVC
  4. Format/Info                              : Advanced Video Codec
  5. Format profile                           : [email protected]
  6. Format settings                          : CABAC / 5 Ref Frames
  7. Format settings, CABAC                   : Yes
  8. Format settings, Reference frames        : 5 frames
  9. Codec ID                                 : V_MPEG4/ISO/AVC
  10. Duration                                 : 1 h 39 min
  11. Bit rate                                 : 4 572 kb/s
  12. Width                                    : 1 920 pixels
  13. Height                                   : 800 pixels
  14. Display aspect ratio                     : 2.40:1
  15. Frame rate mode                          : Constant
  16. Frame rate                               : 24.000 FPS
  17. Color space                              : YUV
  18. Chroma subsampling                       : 4:2:0
  19. Bit depth                                : 8 bits
  20. Scan type                                : Progressive
  21. Bits/(Pixel*Frame)                       : 0.124
  22. Stream size                              : 3.17 GiB (92%)
  23. Title                                    : Vs.2018.1080p.WEB-DL.DD5.1.H264-FGT
  24. Language                                 : English
  25. Default                                  : Yes
  26. Forced                                   : No
  27. Color range                              : Limited
  28. Color primaries                          : BT.709
  29. Transfer characteristics                 : BT.709
  30. Matrix coefficients                      : BT.709

  31. Audio
  32. ID                                       : 2
  33. Format                                   : AC-3
  34. Format/Info                              : Audio Coding 3
  35. Commercial name                          : Dolby Digital
  36. Codec ID                                 : A_AC3
  37. Duration                                 : 1 h 39 min
  38. Bit rate mode                            : Constant
  39. Bit rate                                 : 384 kb/s
  40. Channel(s)                               : 6 channels
  41. Channel layout                           : L R C LFE Ls Rs
  42. Sampling rate                            : 48.0 kHz
  43. Frame rate                               : 31.250 FPS (1536 SPF)
  44. Bit depth                                : 16 bits
  45. Compression mode                         : Lossy
  46. Stream size                              : 272 MiB (8%)
  47. Title                                    : Vs.2018.1080p.WEB-DL.DD5.1.H264-FGT
  48. Language                                 : English
  49. Service kind                             : Complete Main
  50. Default                                  : Yes
  51. Forced                                   : No

  52. Menu
  53. 00:00:00.000                             : en:Chapter 1
  54. 00:19:26.875                             : en:Chapter 2
  55. 00:39:12.291                             : en:Chapter 3
  56. 01:04:55.041                             : en:Chapter 4
  57. 01:34:24.998                             : en:Chapter 5
复制代码

饶舌对决 Vs.2018.1080p.WEB-DL.DD5.1.H264-FGT 3.43GB-2.png 饶舌对决 Vs.2018.1080p.WEB-DL.DD5.1.H264-FGT 3.43GB-3.png 饶舌对决 Vs.2018.1080p.WEB-DL.DD5.1.H264-FGT 3.43GB-4.png






回复

使用道具 举报

懒得打字嘛,点击右侧快捷回复 【右侧内容,后台自定义】
您需要登录后才可以回帖 登录 | 立即加入

本版积分规则

Archiver|小黑屋| 蓝光电影网 |网站地图

Copyright © 2021 Comsenz Inc. Powered by 蓝光电影网

蓝光电影网

本站内容由用户自主分享和转载自互联网,转载目的在于传递更多信息,并不代表本网赞同其观点和对其真实性负责。

如有侵权、违反国家法律政策行为,请联系我们,我们会第一时间及时清除和处理!

举报反馈邮箱:[email protected]

快速回复 返回顶部 返回列表