找回密码

蓝光电影网

查看: 84|回复: 0

[剧情] 洛杉矶无人行走 Nobody.Walks.in.L.A.2016.1080p.WEB-DL.DD5.1.H264-FGT 3.10GB

[复制链接]
蓝光币
382
发表于 2020-1-20 14:52:54 | 显示全部楼层 |阅读模式
洛杉矶无人行走 Nobody.Walks.in.L.A.2016.1080p.WEB-DL.DD5.1.H264-FGT 3.10GB-1.png

译  名 洛杉矶无人行走
片  名 Nobody Walks in L.A.
年  代 2015
产  地 美国
类  别 剧情 / 笑剧 / 恋爱
语  言 英语
上映日期 2016-04-23(美国)
IMDb评分  5.9/10 from 369 users
IMDb链接  https://www.imdb.com/title/tt3878146
豆瓣评分 6.6/10 from 52 users
豆瓣链接 https://movie.douban.com/subject/26628207/
片  长 93分钟
导  演 Jesse Shapiro
编  剧 Jesse Shapiro
主  演 亚当·沙皮罗 Adam Shapiro
       金肖 Kim Shaw
       Matthew Nicklaw


标  签 文艺 | 恋爱 | 2016 | LA | 美国电影 | 自力电影 | 美国 | 长大

简  介  

  Nobody Walks in LA is the story of two old friends who, faced with decisions that cannot wait, put their lives on pause for a day and do the unthinkable.... walk around Los Angeles. [email protected]艾米电影网
  1. Video
  2. ID                                       : 1
  3. Format                                   : AVC
  4. Format/Info                              : Advanced Video Codec
  5. Format profile                           : [email protected]
  6. Format settings                          : CABAC / 5 Ref Frames
  7. Format settings, CABAC                   : Yes
  8. Format settings, Reference frames        : 5 frames
  9. Codec ID                                 : V_MPEG4/ISO/AVC
  10. Duration                                 : 1 h 28 min
  11. Bit rate                                 : 4 526 kb/s
  12. Width                                    : 1 916 pixels
  13. Height                                   : 796 pixels
  14. Display aspect ratio                     : 2.40:1
  15. Frame rate mode                          : Constant
  16. Frame rate                               : 23.976 (24000/1001) FPS
  17. Color space                              : YUV
  18. Chroma subsampling                       : 4:2:0
  19. Bit depth                                : 8 bits
  20. Scan type                                : Progressive
  21. Bits/(Pixel*Frame)                       : 0.124
  22. Stream size                              : 2.80 GiB (90%)
  23. Title                                    : Nobody.Walks.in.L.A.2016.1080p.WEB-DL.DD5.1.H264-FGT
  24. Language                                 : English
  25. Default                                  : Yes
  26. Forced                                   : No
  27. Color range                              : Limited
  28. Color primaries                          : BT.709
  29. Transfer characteristics                 : BT.709
  30. Matrix coefficients                      : BT.709

  31. Audio
  32. ID                                       : 2
  33. Format                                   : AC-3
  34. Format/Info                              : Audio Coding 3
  35. Commercial name                          : Dolby Digital
  36. Codec ID                                 : A_AC3
  37. Duration                                 : 1 h 28 min
  38. Bit rate mode                            : Constant
  39. Bit rate                                 : 384 kb/s
  40. Channel(s)                               : 6 channels
  41. Channel layout                           : L R C LFE Ls Rs
  42. Sampling rate                            : 48.0 kHz
  43. Frame rate                               : 31.250 FPS (1536 SPF)
  44. Bit depth                                : 16 bits
  45. Compression mode                         : Lossy
  46. Stream size                              : 243 MiB (8%)
  47. Title                                    : Nobody.Walks.in.L.A.2016.1080p.WEB-DL.DD5.1.H264-FGT
  48. Language                                 : English
  49. Service kind                             : Complete Main
  50. Default                                  : Yes
  51. Forced                                   : No

  52. Text
  53. ID                                       : 3
  54. Format                                   : UTF-8
  55. Codec ID                                 : S_TEXT/UTF8
  56. Codec ID/Info                            : UTF-8 Plain Text
  57. Language                                 : English
  58. Default                                  : Yes
  59. Forced                                   : No

  60. Menu
  61. 00:00:00.000                             : en:Chapter 1
  62. 00:10:00.600                             : en:Chapter 2
  63. 00:20:01.200                             : en:Chapter 3
  64. 00:30:01.800                             : en:Chapter 4
  65. 00:40:02.400                             : en:Chapter 5
  66. 00:50:03.000                             : en:Chapter 6
  67. 01:00:03.600                             : en:Chapter 7
  68. 01:10:04.200                             : en:Chapter 8
  69. 01:20:04.800                             : en:Chapter 9
复制代码

洛杉矶无人行走 Nobody.Walks.in.L.A.2016.1080p.WEB-DL.DD5.1.H264-FGT 3.10GB-2.png 洛杉矶无人行走 Nobody.Walks.in.L.A.2016.1080p.WEB-DL.DD5.1.H264-FGT 3.10GB-3.png 洛杉矶无人行走 Nobody.Walks.in.L.A.2016.1080p.WEB-DL.DD5.1.H264-FGT 3.10GB-4.png 洛杉矶无人行走 Nobody.Walks.in.L.A.2016.1080p.WEB-DL.DD5.1.H264-FGT 3.10GB-5.png 洛杉矶无人行走 Nobody.Walks.in.L.A.2016.1080p.WEB-DL.DD5.1.H264-FGT 3.10GB-6.png 洛杉矶无人行走 Nobody.Walks.in.L.A.2016.1080p.WEB-DL.DD5.1.H264-FGT 3.10GB-7.png






回复

使用道具 举报

懒得打字嘛,点击右侧快捷回复 【右侧内容,后台自定义】
您需要登录后才可以回帖 登录 | 立即加入

本版积分规则

Archiver|小黑屋| 蓝光电影网 |网站地图

Copyright © 2021 Comsenz Inc. Powered by 蓝光电影网

蓝光电影网

本站内容由用户自主分享和转载自互联网,转载目的在于传递更多信息,并不代表本网赞同其观点和对其真实性负责。

如有侵权、违反国家法律政策行为,请联系我们,我们会第一时间及时清除和处理!

举报反馈邮箱:[email protected]

快速回复 返回顶部 返回列表