找回密码

蓝光电影网

查看: 1091|回复: 1

[剧情] 绝境逃脱 Monolith.2016.1080p.WEB-DL.DD5.1.H264-FGT 2.78GB

[复制链接]
蓝光币
382
发表于 2020-1-20 14:55:11 | 显示全部楼层 |阅读模式
p2497491454.jpg

译  名 绝境逃走
片  名 Monolith
年  代 2016
产  地 意大利 / 意大利
类  别 剧情 / 惊悚
语  言 英语
上映日期 2016-05-12(法国)
IMDb评分  4.7/10 from 1573 users
IMDb链接  https://www.imdb.com/title/tt4711924
豆瓣评分 0/10 from 0 users
豆瓣链接 https://movie.douban.com/subject/26830132/
片  长 83分钟
导  演 Ivan Silvestrini
编  剧 Elena Bucaccio / Roberto Recchioni
主  演 卡特里娜·宝登 Katrina Bowden
       布兰登·琼斯 Brandon Jones
       Damon Dayoub
       凯瑟琳·凯利·朗 Katherine Kelly Lang
       杰.海登 Jay Hayden
       贾斯婷·瓦希伯格 Justine Wachsberger
       Lauren McKnight
       Andrea Ellsworth
       David H. Stevens
       Demetrius Daniels
       Krew Hodges
       Sila Agavale
       Nixon Hodges


标  签 产业/智能/科幻/穿越/未来风 | 意大利 | 电影 | 惊悚 | 稀缺 | 可骇 | 灾难 | 大片

简  介  

  一个妈妈Sandra为领会决和自己丈夫的中年危机,决议和他的儿子筹算忽然去看他们在洛杉矶的丈夫/爸爸,给他一个欣喜。可是当车开到半路时,他们的车在在渺无人烟的地方发生了严重的车祸。先是由于玩智妙手机,形成毛病的操纵,致使孩子被单独锁在现今很是先辈自动化的防弹车子内。而Sandra必须与时候赛跑,从被沙漠的炽烈包裹的汽车中救出自己的孩子,还要面临荒无人烟的沙漠,她必须同野狗和变化莫测沙漠斗争。终极母子2人的命运会是怎样呢?
  1. Video
  2. ID                                       : 1
  3. Format                                   : AVC
  4. Format/Info                              : Advanced Video Codec
  5. Format profile                           : [email protected]
  6. Format settings                          : CABAC / 5 Ref Frames
  7. Format settings, CABAC                   : Yes
  8. Format settings, Reference frames        : 5 frames
  9. Codec ID                                 : V_MPEG4/ISO/AVC
  10. Duration                                 : 1 h 21 min
  11. Bit rate                                 : 4 506 kb/s
  12. Width                                    : 1 920 pixels
  13. Height                                   : 796 pixels
  14. Display aspect ratio                     : 2.40:1
  15. Frame rate mode                          : Constant
  16. Frame rate                               : 25.000 FPS
  17. Color space                              : YUV
  18. Chroma subsampling                       : 4:2:0
  19. Bit depth                                : 8 bits
  20. Scan type                                : Progressive
  21. Bits/(Pixel*Frame)                       : 0.118
  22. Stream size                              : 2.56 GiB (92%)
  23. Title                                    : Monolith.2016.1080p.WEB-DL.DD5.1.H.264-FGT
  24. Language                                 : English
  25. Default                                  : Yes
  26. Forced                                   : No
  27. Color range                              : Limited
  28. Color primaries                          : BT.709
  29. Transfer characteristics                 : BT.709
  30. Matrix coefficients                      : BT.709

  31. Audio
  32. ID                                       : 2
  33. Format                                   : AC-3
  34. Format/Info                              : Audio Coding 3
  35. Commercial name                          : Dolby Digital
  36. Codec ID                                 : A_AC3
  37. Duration                                 : 1 h 21 min
  38. Bit rate mode                            : Constant
  39. Bit rate                                 : 384 kb/s
  40. Channel(s)                               : 6 channels
  41. Channel layout                           : L R C LFE Ls Rs
  42. Sampling rate                            : 48.0 kHz
  43. Frame rate                               : 31.250 FPS (1536 SPF)
  44. Bit depth                                : 16 bits
  45. Compression mode                         : Lossy
  46. Stream size                              : 223 MiB (8%)
  47. Title                                    : Monolith.2016.1080p.WEB-DL.DD5.1.H.264-FGT
  48. Language                                 : English
  49. Service kind                             : Complete Main
  50. Default                                  : Yes
  51. Forced                                   : No

  52. Text
  53. ID                                       : 3
  54. Format                                   : UTF-8
  55. Codec ID                                 : S_TEXT/UTF8
  56. Codec ID/Info                            : UTF-8 Plain Text
  57. Duration                                 : 1 h 21 min
  58. Bit rate                                 : 34 b/s
  59. Count of elements                        : 852
  60. Stream size                              : 20.7 KiB (0%)
  61. Language                                 : English
  62. Default                                  : Yes
  63. Forced                                   : No

  64. Menu
  65. 00:00:00.000                             : en:1
  66. 00:13:08.560                             : en:2
  67. 00:22:40.440                             : en:3
  68. 00:32:13.800                             : en:4
  69. 00:43:36.800                             : en:5
  70. 00:52:22.480                             : en:6
  71. 01:01:37.200                             : en:7
  72. 01:10:32.760                             : en:8
  73. 01:16:42.680                             : en:9
复制代码

绝境逃走 Monolith.2016.1080p.WEB-DL.DD5.1.H264-FGT 2.78GB-2.png 绝境逃走 Monolith.2016.1080p.WEB-DL.DD5.1.H264-FGT 2.78GB-3.png 绝境逃走 Monolith.2016.1080p.WEB-DL.DD5.1.H264-FGT 2.78GB-4.png






回复

使用道具 举报

懒得打字嘛,点击右侧快捷回复 【右侧内容,后台自定义】
您需要登录后才可以回帖 登录 | 立即加入

本版积分规则

Archiver|小黑屋| 蓝光电影网 |网站地图

Copyright © 2021 Comsenz Inc. Powered by 蓝光电影网

蓝光电影网

本站内容由用户自主分享和转载自互联网,转载目的在于传递更多信息,并不代表本网赞同其观点和对其真实性负责。

如有侵权、违反国家法律政策行为,请联系我们,我们会第一时间及时清除和处理!

举报反馈邮箱:[email protected]

快速回复 返回顶部 返回列表