找回密码

蓝光电影网

查看: 130|回复: 0

[惊悚] 心怀恶意 Malicious.2018.1080p.WEB-DL.DD5.1.H264-FGT 3.13GB

[复制链接]
蓝光币
382
发表于 2020-1-20 14:55:52 | 显示全部楼层 |阅读模式
心胸恶意 Malicious.2018.1080p.WEB-DL.DD5.1.H264-FGT 3.13GB-1.png

译  名 心胸恶意 / The Curse / 恶孕(台)
片  名 Malicious
年  代 2018
产  地 美国
类  别 惊悚 / 可骇
语  言 英语
上映日期 2018-10-18(美国)
IMDb评分  5.0/10 from 2779 users
IMDb链接  https://www.imdb.com/title/tt6197494
豆瓣评分 5.1/10 from 727 users
豆瓣链接 https://movie.douban.com/subject/27027904/
片  长 91分钟
导  演 Michael Winnick
编  剧 Michael Winnick
主  演 博亚娜·诺瓦科维奇 Bojana Novakovi?
       乔什·斯图沃特 Josh Stewart
       戴尔里·林多 Delroy Lindo
       梅丽莎·博洛纳 Melissa Bolona
       伊薇特·耶茨 Yvette Yates
       贾克琳·弗莱明 Jaqueline Fleming
       卢克·爱德华兹 Luke Edwards
       本·范德梅 Ben VanderMey
       Joy Kate Lawson
       Bailee MyKell Cowperthwaite


标  签 可骇 | 惊悚 | 灵异 | 美国 | 2018 | 美国电影 | 电影 | 超自然

简  介  

  年轻大学教授亚当在一所名校获得了职位,他和怀孕的妻子丽莎搬到城外不远的郊区屋子居住,但是待两人安置好、亚当起头新的讲授生活后,健康活跃的丽莎却迷之流产了,差点死于出血过量,而且再也不能怀孕了。丽莎起头相信是一种超自然气力害她流产,这类理论随后获得妹妹贝琪的加固,而亚当和丽莎的医生却以为是丽莎做了太多不被答应的锻炼和重活才流产的。
  1. Video
  2. ID                                       : 1
  3. Format                                   : AVC
  4. Format/Info                              : Advanced Video Codec
  5. Format profile                           : [email protected]
  6. Format settings                          : CABAC / 5 Ref Frames
  7. Format settings, CABAC                   : Yes
  8. Format settings, Reference frames        : 5 frames
  9. Codec ID                                 : V_MPEG4/ISO/AVC
  10. Duration                                 : 1 h 30 min
  11. Bit rate                                 : 4 547 kb/s
  12. Width                                    : 1 912 pixels
  13. Height                                   : 788 pixels
  14. Display aspect ratio                     : 2.40:1
  15. Frame rate mode                          : Constant
  16. Frame rate                               : 23.976 FPS
  17. Color space                              : YUV
  18. Chroma subsampling                       : 4:2:0
  19. Bit depth                                : 8 bits
  20. Scan type                                : Progressive
  21. Bits/(Pixel*Frame)                       : 0.126
  22. Stream size                              : 2.89 GiB (92%)
  23. Title                                    : Malicious.2018.1080p.WEB-DL.H264.AC3-FGT
  24. Language                                 : English
  25. Default                                  : Yes
  26. Forced                                   : No
  27. Color range                              : Limited
  28. Color primaries                          : BT.709
  29. Transfer characteristics                 : BT.709
  30. Matrix coefficients                      : BT.709

  31. Audio
  32. ID                                       : 2
  33. Format                                   : AC-3
  34. Format/Info                              : Audio Coding 3
  35. Commercial name                          : Dolby Digital
  36. Codec ID                                 : A_AC3
  37. Duration                                 : 1 h 30 min
  38. Bit rate mode                            : Constant
  39. Bit rate                                 : 384 kb/s
  40. Channel(s)                               : 6 channels
  41. Channel layout                           : L R C LFE Ls Rs
  42. Sampling rate                            : 48.0 kHz
  43. Frame rate                               : 31.250 FPS (1536 SPF)
  44. Bit depth                                : 16 bits
  45. Compression mode                         : Lossy
  46. Stream size                              : 250 MiB (8%)
  47. Title                                    : Malicious.2018.1080p.WEB-DL.H264.AC3-FGT
  48. Language                                 : English
  49. Service kind                             : Complete Main
  50. Default                                  : Yes
  51. Forced                                   : No

  52. Menu
  53. 00:00:00.000                             : en:1
  54. 00:08:03.000                             : en:2
  55. 00:15:38.000                             : en:3
  56. 00:23:16.000                             : en:4
  57. 00:32:13.000                             : en:5
  58. 00:40:07.000                             : en:6
  59. 00:48:16.000                             : en:7
  60. 00:56:13.000                             : en:8
  61. 01:04:58.000                             : en:9
  62. 01:12:53.000                             : en:10
  63. 01:19:43.000                             : en:11
  64. 01:27:53.000                             : en:12
复制代码

心胸恶意 Malicious.2018.1080p.WEB-DL.DD5.1.H264-FGT 3.13GB-2.png 心胸恶意 Malicious.2018.1080p.WEB-DL.DD5.1.H264-FGT 3.13GB-3.png 心胸恶意 Malicious.2018.1080p.WEB-DL.DD5.1.H264-FGT 3.13GB-4.png






回复

使用道具 举报

懒得打字嘛,点击右侧快捷回复 【右侧内容,后台自定义】
您需要登录后才可以回帖 登录 | 立即加入

本版积分规则

Archiver|小黑屋| 蓝光电影网 |网站地图

Copyright © 2021 Comsenz Inc. Powered by 蓝光电影网

蓝光电影网

本站内容由用户自主分享和转载自互联网,转载目的在于传递更多信息,并不代表本网赞同其观点和对其真实性负责。

如有侵权、违反国家法律政策行为,请联系我们,我们会第一时间及时清除和处理!

举报反馈邮箱:[email protected]

快速回复 返回顶部 返回列表