找回密码

蓝光电影网

查看: 140|回复: 0

[恐怖] 爱丽丝湖血案 Lake.Alice.2017.1080p.WEB-DL.DD5.1.H264-FGT 2.73GB

[复制链接]
蓝光币
386
发表于 2020-1-20 14:57:41 | 显示全部楼层 |阅读模式
爱丽丝湖血案 Lake.Alice.2017.1080p.WEB-DL.DD5.1.H264-FGT 2.73GB-1.png

译  名 爱丽丝湖血案
片  名 Lake Alice
年  代 2017
产  地 美国
类  别 可骇
语  言 英语
上映日期 2017-05-08(英国)
IMDb评分  3.7/10 from 1742 users
IMDb链接  https://www.imdb.com/title/tt3923004
豆瓣评分 3.7/10 from 142 users
豆瓣链接 https://movie.douban.com/subject/26356593/
片  长 80分钟
导  演 本·米利肯  Ben Milliken
编  剧 Stevie Jane
主  演 布兰登·伊顿 Brando Eaton
       迈克尔·肖姆斯·维尔斯 Michael Shamus Wiles
       皮特·奥布莱恩 Peter O'Brien
       劳拉·尼米 Laura Niemi
       Caroline Tudor
       Eileen Dietz
       Brad Schmidt
       Craig Rees
       Patrick Burch


标  签 惊悚 | 可骇 | 烂片 | 美国 | 犯罪 | 美国电影 | 悬疑 | 可骇电影

简  介  

  Meeting his girlfriend's family for the first time, Ryan must prove his intentions with their daughter, Sarah, and win the approval of her father, Greg. All the while masking his jealousy for Sarah's ex-fling, Tyler. As the Christmas celebrations and traditions begin, things start to happen around the cabin. As a blizzard descends on Lake Alice, so does evil. The family members are hunted down one by one and struggle to stay alive as their power in numbers slowly [email protected]
  1. Video
  2. ID                                       : 1
  3. Format                                   : AVC
  4. Format/Info                              : Advanced Video Codec
  5. Format profile                           : [email protected]
  6. Format settings                          : CABAC / 5 Ref Frames
  7. Format settings, CABAC                   : Yes
  8. Format settings, Reference frames        : 5 frames
  9. Codec ID                                 : V_MPEG4/ISO/AVC
  10. Duration                                 : 1 h 18 min
  11. Bit rate                                 : 4 494 kb/s
  12. Width                                    : 1 920 pixels
  13. Height                                   : 792 pixels
  14. Display aspect ratio                     : 2.40:1
  15. Frame rate mode                          : Constant
  16. Frame rate                               : 23.976 (24000/1001) FPS
  17. Color space                              : YUV
  18. Chroma subsampling                       : 4:2:0
  19. Bit depth                                : 8 bits
  20. Scan type                                : Progressive
  21. Bits/(Pixel*Frame)                       : 0.123
  22. Stream size                              : 2.46 GiB (90%)
  23. Title                                    : Lake.Alice.2017.1080p.WEB-DL.DD5.1.H264-FGT
  24. Language                                 : English
  25. Default                                  : Yes
  26. Forced                                   : No
  27. Color range                              : Limited
  28. Color primaries                          : BT.709
  29. Transfer characteristics                 : BT.709
  30. Matrix coefficients                      : BT.709

  31. Audio
  32. ID                                       : 2
  33. Format                                   : AC-3
  34. Format/Info                              : Audio Coding 3
  35. Commercial name                          : Dolby Digital
  36. Codec ID                                 : A_AC3
  37. Duration                                 : 1 h 18 min
  38. Bit rate mode                            : Constant
  39. Bit rate                                 : 384 kb/s
  40. Channel(s)                               : 6 channels
  41. Channel layout                           : L R C LFE Ls Rs
  42. Sampling rate                            : 48.0 kHz
  43. Frame rate                               : 31.250 FPS (1536 SPF)
  44. Bit depth                                : 16 bits
  45. Compression mode                         : Lossy
  46. Stream size                              : 216 MiB (8%)
  47. Title                                    : Lake.Alice.2017.1080p.WEB-DL.DD5.1.H264-FGT
  48. Language                                 : English
  49. Service kind                             : Complete Main
  50. Default                                  : Yes
  51. Forced                                   : No

  52. Text
  53. ID                                       : 3
  54. Format                                   : UTF-8
  55. Codec ID                                 : S_TEXT/UTF8
  56. Codec ID/Info                            : UTF-8 Plain Text
  57. Language                                 : English
  58. Default                                  : Yes
  59. Forced                                   : No

  60. Menu
  61. 00:00:00.000                             : en:1
  62. 00:09:21.227                             : en:2
  63. 00:18:02.039                             : en:3
  64. 00:27:18.136                             : en:4
  65. 00:37:39.131                             : en:5
  66. 00:48:21.064                             : en:6
  67. 00:58:23.666                             : en:7
  68. 01:06:16.305                             : en:8
  69. 01:16:22.202                             : en:9
复制代码

爱丽丝湖血案 Lake.Alice.2017.1080p.WEB-DL.DD5.1.H264-FGT 2.73GB-2.png 爱丽丝湖血案 Lake.Alice.2017.1080p.WEB-DL.DD5.1.H264-FGT 2.73GB-3.png 145655vmo2585x2jm3img8.png 爱丽丝湖血案 Lake.Alice.2017.1080p.WEB-DL.DD5.1.H264-FGT 2.73GB-5.png 爱丽丝湖血案 Lake.Alice.2017.1080p.WEB-DL.DD5.1.H264-FGT 2.73GB-6.png 爱丽丝湖血案 Lake.Alice.2017.1080p.WEB-DL.DD5.1.H264-FGT 2.73GB-7.png






回复

使用道具 举报

懒得打字嘛,点击右侧快捷回复 【右侧内容,后台自定义】
您需要登录后才可以回帖 登录 | 立即加入

本版积分规则

Archiver|小黑屋| 蓝光电影网 |网站地图

Copyright © 2021 Comsenz Inc. Powered by 蓝光电影网

蓝光电影网

本站内容由用户自主分享和转载自互联网,转载目的在于传递更多信息,并不代表本网赞同其观点和对其真实性负责。

如有侵权、违反国家法律政策行为,请联系我们,我们会第一时间及时清除和处理!

举报反馈邮箱:[email protected]

快速回复 返回顶部 返回列表