找回密码

蓝光电影网

查看: 78|回复: 0

[剧情] 虚度光阴 Idled.2018.1080p.AMZN.WEBRip.DDP2.0.x264-CM 3.82GB

[复制链接]
蓝光币
386
发表于 2020-1-20 14:58:22 | 显示全部楼层 |阅读模式
虚度工夫 Idled.2018.1080p.AMZN.WEBRip.DDP2.0.x264-CM 3.82GB-1.png

译  名 虚度工夫 / The T.J. Taxi
片  名 Idled
年  代 2018
产  地 美国
类  别 剧情 / 笑剧
语  言 英语
IMDb评分  4.7/10 from 23 users
IMDb链接  https://www.imdb.com/title/tt3415354
豆瓣评分 0/10 from 0 users
豆瓣链接 https://movie.douban.com/subject/30371316/
导  演 Andy Rayner
编  剧 Andy Rayner / Robin Zamora
主  演 Shannon Murray
       Ryan de Quintal
       Jeremiah Benjamin


标  签 [歐美]

简  介  

  From young adults to still growing up, we take a ride through Val's memories of Mickey as he makes his way to see his brother. An atypical exploration of the nuances of various stages in a relationship. Every ending has it's middle.
  1. Video
  2. ID                                       : 1
  3. Format                                   : AVC
  4. Format/Info                              : Advanced Video Codec
  5. Format profile                           : [email protected]
  6. Format settings                          : CABAC / 4 Ref Frames
  7. Format settings, CABAC                   : Yes
  8. Format settings, Reference frames        : 4 frames
  9. Codec ID                                 : V_MPEG4/ISO/AVC
  10. Duration                                 : 1 h 14 min
  11. Bit rate                                 : 7 146 kb/s
  12. Width                                    : 1 920 pixels
  13. Height                                   : 1 080 pixels
  14. Display aspect ratio                     : 16:9
  15. Frame rate mode                          : Constant
  16. Frame rate                               : 23.976 (24000/1001) FPS
  17. Color space                              : YUV
  18. Chroma subsampling                       : 4:2:0
  19. Bit depth                                : 8 bits
  20. Scan type                                : Progressive
  21. Bits/(Pixel*Frame)                       : 0.144
  22. Stream size                              : 3.71 GiB (97%)
  23. Default                                  : Yes
  24. Forced                                   : No
  25. Color range                              : Limited
  26. Color primaries                          : BT.709
  27. Transfer characteristics                 : BT.709
  28. Matrix coefficients                      : BT.709

  29. Audio
  30. ID                                       : 2
  31. Format                                   : E-AC-3
  32. Format/Info                              : Enhanced AC-3
  33. Commercial name                          : Dolby Digital Plus
  34. Codec ID                                 : A_EAC3
  35. Duration                                 : 1 h 14 min
  36. Bit rate mode                            : Constant
  37. Bit rate                                 : 224 kb/s
  38. Channel(s)                               : 2 channels
  39. Channel layout                           : L R
  40. Sampling rate                            : 48.0 kHz
  41. Frame rate                               : 31.250 FPS (1536 SPF)
  42. Compression mode                         : Lossy
  43. Stream size                              : 119 MiB (3%)
  44. Title                                    : English
  45. Language                                 : English
  46. Service kind                             : Complete Main
  47. Default                                  : Yes
  48. Forced                                   : No

  49. Text
  50. ID                                       : 3
  51. Format                                   : UTF-8
  52. Codec ID                                 : S_TEXT/UTF8
  53. Codec ID/Info                            : UTF-8 Plain Text
  54. Duration                                 : 1 h 14 min
  55. Bit rate                                 : 112 b/s
  56. Count of elements                        : 1676
  57. Stream size                              : 61.0 KiB (0%)
  58. Title                                    : English [SDH]
  59. Language                                 : English
  60. Default                                  : No
  61. Forced                                   : No
复制代码

虚度工夫 Idled.2018.1080p.AMZN.WEBRip.DDP2.0.x264-CM 3.82GB-2.png 虚度工夫 Idled.2018.1080p.AMZN.WEBRip.DDP2.0.x264-CM 3.82GB-3.png 虚度工夫 Idled.2018.1080p.AMZN.WEBRip.DDP2.0.x264-CM 3.82GB-4.png






回复

使用道具 举报

懒得打字嘛,点击右侧快捷回复 【右侧内容,后台自定义】
您需要登录后才可以回帖 登录 | 立即加入

本版积分规则

Archiver|小黑屋| 蓝光电影网 |网站地图

Copyright © 2021 Comsenz Inc. Powered by 蓝光电影网

蓝光电影网

本站内容由用户自主分享和转载自互联网,转载目的在于传递更多信息,并不代表本网赞同其观点和对其真实性负责。

如有侵权、违反国家法律政策行为,请联系我们,我们会第一时间及时清除和处理!

举报反馈邮箱:[email protected]

快速回复 返回顶部 返回列表