找回密码

蓝光电影网

查看: 107|回复: 0

[纪录] 禁忌的竞赛/禁赛:贾斯汀·法沙努的故事 Forbidden.Games.The.Justin.Fashanu.Story.2017.1080p.WEB.x264-STRiFE 3.47GB

[复制链接]
蓝光币
382
发表于 2020-1-20 14:59:42 | 显示全部楼层 |阅读模式
忌讳的比赛/禁赛:贾斯汀·法沙努的故事 Forbidden.Games.The.Justin.Fashanu.Story.2017.1080p.WEB.x264-STRiFE 3.47GB-1.png

译  名 忌讳的比赛 / 禁赛:贾斯汀·法沙努的故事 / 贾斯汀·法沙努的故事
片  名 Forbidden Games: The Justin Fashanu Story
年  代 2017
产  地 英国
类  别 记载片
语  言 英语
上映日期 2017-10-06(英国)
IMDb评分  6.5/10 from 233 users
IMDb链接  https://www.imdb.com/title/tt6538102
豆瓣评分 0/10 from 0 users
豆瓣链接 https://movie.douban.com/subject/30143826/
导  演 Jon Carey / Adam Darke
主  演 Justin Fashanu
       John Fashanu
       Bevan Celestine
       Stephen Yaw Agyekum Asante
       Peter Yaw Agyekum Asante
       John Barnes
       Glenn Hoddle
       Joe Royle
       Ambrose Mendy
       Marisol Acuna
       A.J. Ali


标  签 足球 | 记载片 | 忌讳的比赛 | 贾斯汀 | 自杀 | 同性恋 | LGBT+

简  介  

  The tragic story of the first and only football player to come out as gay whilst still playing.
  1. Video
  2. ID                                       : 1
  3. Format                                   : AVC
  4. Format/Info                              : Advanced Video Codec
  5. Format profile                           : [email protected]
  6. Format settings                          : CABAC / 3 Ref Frames
  7. Format settings, CABAC                   : Yes
  8. Format settings, Reference frames        : 3 frames
  9. Codec ID                                 : V_MPEG4/ISO/AVC
  10. Duration                                 : 1 h 20 min
  11. Bit rate mode                            : Variable
  12. Bit rate                                 : 6 190 kb/s
  13. Maximum bit rate                         : 9 285 kb/s
  14. Width                                    : 1 920 pixels
  15. Height                                   : 1 080 pixels
  16. Display aspect ratio                     : 16:9
  17. Frame rate mode                          : Constant
  18. Frame rate                               : 25.000 FPS
  19. Color space                              : YUV
  20. Chroma subsampling                       : 4:2:0
  21. Bit depth                                : 8 bits
  22. Scan type                                : Progressive
  23. Bits/(Pixel*Frame)                       : 0.119
  24. Stream size                              : 3.40 GiB (98%)
  25. Writing library                          : x264 core 118
  26. Encoding settings                        : cabac=1 / ref=3 / deblock=1:0:0 / analyse=0x1:0x111 / me=umh / subme=10 / psy=1 / psy_rd=1.00:0.00 / mixed_ref=1 / me_range=24 / chroma_me=1 / trellis=2 / 8x8dct=0 / cqm=0 / deadzone=21,11 / fast_pskip=1 / chroma_qp_offset=-2 / threads=6 / sliced_threads=0 / nr=0 / decimate=1 / interlaced=0 / bluray_compat=0 / constrained_intra=0 / bframes=2 / b_pyramid=0 / b_adapt=2 / b_bias=0 / direct=3 / weightb=1 / open_gop=0 / weightp=2 / keyint=50 / keyint_min=26 / scenecut=0 / intra_refresh=0 / rc_lookahead=0 / rc=2pass / mbtree=1 / bitrate=6190 / ratetol=1.0 / qcomp=0.50 / qpmin=6 / qpmax=51 / qpstep=4 / cplxblur=20.0 / qblur=0.5 / vbv_maxrate=9285 / vbv_bufsize=12380 / nal_hrd=vbr / ip_ratio=1.40 / aq=1:1.00
  27. Default                                  : Yes
  28. Forced                                   : No

  29. Audio
  30. ID                                       : 2
  31. Format                                   : E-AC-3
  32. Format/Info                              : Enhanced AC-3
  33. Commercial name                          : Dolby Digital Plus
  34. Codec ID                                 : A_EAC3
  35. Duration                                 : 1 h 20 min
  36. Bit rate mode                            : Constant
  37. Bit rate                                 : 128 kb/s
  38. Channel(s)                               : 2 channels
  39. Channel layout                           : L R
  40. Sampling rate                            : 48.0 kHz
  41. Frame rate                               : 31.250 FPS (1536 SPF)
  42. Compression mode                         : Lossy
  43. Stream size                              : 73.8 MiB (2%)
  44. Language                                 : English
  45. Service kind                             : Complete Main
  46. Default                                  : Yes
  47. Forced                                   : No

  48. Text #1
  49. ID                                       : 3
  50. Format                                   : UTF-8
  51. Codec ID                                 : S_TEXT/UTF8
  52. Codec ID/Info                            : UTF-8 Plain Text
  53. Duration                                 : 1 h 20 min
  54. Bit rate                                 : 97 b/s
  55. Count of elements                        : 1286
  56. Stream size                              : 57.5 KiB (0%)
  57. Language                                 : English
  58. Default                                  : No
  59. Forced                                   : No

  60. Text #2
  61. ID                                       : 4
  62. Format                                   : UTF-8
  63. Codec ID                                 : S_TEXT/UTF8
  64. Codec ID/Info                            : UTF-8 Plain Text
  65. Duration                                 : 1 h 20 min
  66. Bit rate                                 : 83 b/s
  67. Count of elements                        : 1230
  68. Stream size                              : 49.2 KiB (0%)
  69. Language                                 : French
  70. Default                                  : No
  71. Forced                                   : No

  72. Text #3
  73. ID                                       : 5
  74. Format                                   : UTF-8
  75. Codec ID                                 : S_TEXT/UTF8
  76. Codec ID/Info                            : UTF-8 Plain Text
  77. Duration                                 : 1 h 20 min
  78. Bit rate                                 : 77 b/s
  79. Count of elements                        : 1224
  80. Stream size                              : 45.2 KiB (0%)
  81. Language                                 : Polish
  82. Default                                  : No
  83. Forced                                   : No

  84. Text #4
  85. ID                                       : 6
  86. Format                                   : UTF-8
  87. Codec ID                                 : S_TEXT/UTF8
  88. Codec ID/Info                            : UTF-8 Plain Text
  89. Duration                                 : 1 h 20 min
  90. Bit rate                                 : 81 b/s
  91. Count of elements                        : 1225
  92. Stream size                              : 47.8 KiB (0%)
  93. Language                                 : Portuguese
  94. Default                                  : No
  95. Forced                                   : No

  96. Text #5
  97. ID                                       : 7
  98. Format                                   : UTF-8
  99. Codec ID                                 : S_TEXT/UTF8
  100. Codec ID/Info                            : UTF-8 Plain Text
  101. Duration                                 : 1 h 20 min
  102. Bit rate                                 : 84 b/s
  103. Count of elements                        : 1233
  104. Stream size                              : 49.5 KiB (0%)
  105. Language                                 : Spanish
  106. Default                                  : No
  107. Forced                                   : No
复制代码

忌讳的比赛/禁赛:贾斯汀·法沙努的故事 Forbidden.Games.The.Justin.Fashanu.Story.2017.1080p.WEB.x264-STRiFE 3.47GB-2.png






回复

使用道具 举报

懒得打字嘛,点击右侧快捷回复 【右侧内容,后台自定义】
您需要登录后才可以回帖 登录 | 立即加入

本版积分规则

Archiver|小黑屋| 蓝光电影网 |网站地图

Copyright © 2021 Comsenz Inc. Powered by 蓝光电影网

蓝光电影网

本站内容由用户自主分享和转载自互联网,转载目的在于传递更多信息,并不代表本网赞同其观点和对其真实性负责。

如有侵权、违反国家法律政策行为,请联系我们,我们会第一时间及时清除和处理!

举报反馈邮箱:[email protected]

快速回复 返回顶部 返回列表