找回密码

蓝光电影网

查看: 138|回复: 0

[剧情] 美国币 Americons.2017.1080p.WEB-DL.DD5.1.H264-FGT 2.94GB

[复制链接]
蓝光币
382
发表于 2020-1-20 15:12:37 | 显示全部楼层 |阅读模式
美国币 Americons.2017.1080p.WEB-DL.DD5.1.H264-FGT 2.94GB-1.png

译  名 美国币
片  名 Americons
年  代 2017
产  地 美国
类  别 剧情 / 行动 / 列传 / 犯罪
语  言 英语
上映日期 2017-01-19(美国)
IMDb评分  6.2/10 from 532 users
IMDb链接  https://www.imdb.com/title/tt2293060
豆瓣评分 0/10 from 0 users
豆瓣链接 https://movie.douban.com/subject/21348448/
片  长 89分钟
导  演 Theo Avgerinos
编  剧 Beau Martin Williams / Matt Funke
主  演 泰·比尔斯 Trai Byers
       山姆·麦克莫里 Sam McMurray
       强·格瑞斯 Jon Gries
       蒂姆·格里芬 Tim Griffin
       艾丽西亚·奥奇瑟 Alyshia Ochse
       布莱恩·史姑娘 Brian Smith
       米歇尔·隆巴多 Michelle Lombardo
       Beau Martin Williams
       Matt Funke
       Michael Masini
       Marlana Carter
       Matt Medrano
       Katrina Begin
       Cathy Shim
       Jenny Allford


标  签 美国

简  介  

  2007年,加利福利亚百分之二十的人都处置房地产业。抵押存款银行处于大量招聘职员,这时抵押存款妙手大卫 维斯游说备受经济压力的杰森 盖里,起头处置经济投资,为他人实现胡想。大卫使杰森深信,要在这个贸易中获告捷利,只要靠行骗手段才能做得红火,从评价员一向做到债券买卖员,大家如此。杰森没惊住引诱,一度将道德约束抛于脑后,一向熬到拉斯维加斯的抵押存款大会,在那边他看到了他蒸蒸日上的奇迹同时也意想到了潜伏的危机感。破产的泥潭上升为影片和现在全球经济延续不竭传闻之间的悬念结尾。
  1. Video
  2. ID                                       : 1
  3. Format                                   : AVC
  4. Format/Info                              : Advanced Video Codec
  5. Format profile                           : [email protected]
  6. Format settings                          : CABAC / 5 Ref Frames
  7. Format settings, CABAC                   : Yes
  8. Format settings, Reference frames        : 5 frames
  9. Codec ID                                 : V_MPEG4/ISO/AVC
  10. Duration                                 : 1 h 25 min
  11. Bit rate                                 : 4 467 kb/s
  12. Width                                    : 1 912 pixels
  13. Height                                   : 804 pixels
  14. Display aspect ratio                     : 2.40:1
  15. Frame rate mode                          : Constant
  16. Frame rate                               : 23.976 (24000/1001) FPS
  17. Color space                              : YUV
  18. Chroma subsampling                       : 4:2:0
  19. Bit depth                                : 8 bits
  20. Scan type                                : Progressive
  21. Bits/(Pixel*Frame)                       : 0.121
  22. Stream size                              : 2.65 GiB (90%)
  23. Title                                    : Americons.2017.1080p.WEB-DL.DD5.1.H264-FGT
  24. Language                                 : English
  25. Default                                  : Yes
  26. Forced                                   : No
  27. Color range                              : Limited
  28. Color primaries                          : BT.709
  29. Transfer characteristics                 : BT.709
  30. Matrix coefficients                      : BT.709

  31. Audio
  32. ID                                       : 2
  33. Format                                   : AC-3
  34. Format/Info                              : Audio Coding 3
  35. Commercial name                          : Dolby Digital
  36. Codec ID                                 : A_AC3
  37. Duration                                 : 1 h 25 min
  38. Bit rate mode                            : Constant
  39. Bit rate                                 : 384 kb/s
  40. Channel(s)                               : 6 channels
  41. Channel layout                           : L R C LFE Ls Rs
  42. Sampling rate                            : 48.0 kHz
  43. Frame rate                               : 31.250 FPS (1536 SPF)
  44. Bit depth                                : 16 bits
  45. Compression mode                         : Lossy
  46. Stream size                              : 234 MiB (8%)
  47. Title                                    : Americons.2017.1080p.WEB-DL.DD5.1.H264-FGT
  48. Language                                 : English
  49. Service kind                             : Complete Main
  50. Default                                  : Yes
  51. Forced                                   : No

  52. Menu
  53. 00:00:00.000                             : en:1
  54. 00:04:56.000                             : en:2
  55. 00:18:31.000                             : en:3
  56. 00:31:36.000                             : en:4
  57. 00:43:41.000                             : en:5
  58. 00:56:43.000                             : en:6
  59. 01:10:40.000                             : en:7
  60. 01:20:21.000                             : en:8
复制代码

美国币 Americons.2017.1080p.WEB-DL.DD5.1.H264-FGT 2.94GB-2.png 美国币 Americons.2017.1080p.WEB-DL.DD5.1.H264-FGT 2.94GB-3.png 26795481476943373042_medium.png 美国币 Americons.2017.1080p.WEB-DL.DD5.1.H264-FGT 2.94GB-5.png 美国币 Americons.2017.1080p.WEB-DL.DD5.1.H264-FGT 2.94GB-6.png 美国币 Americons.2017.1080p.WEB-DL.DD5.1.H264-FGT 2.94GB-7.png






回复

使用道具 举报

懒得打字嘛,点击右侧快捷回复 【右侧内容,后台自定义】
您需要登录后才可以回帖 登录 | 立即加入

本版积分规则

Archiver|小黑屋| 蓝光电影网 |网站地图

Copyright © 2021 Comsenz Inc. Powered by 蓝光电影网

蓝光电影网

本站内容由用户自主分享和转载自互联网,转载目的在于传递更多信息,并不代表本网赞同其观点和对其真实性负责。

如有侵权、违反国家法律政策行为,请联系我们,我们会第一时间及时清除和处理!

举报反馈邮箱:[email protected]

快速回复 返回顶部 返回列表