找回密码

蓝光电影网

查看: 72|回复: 0

[剧情] 全广场 All.Square.2018.1080p.WEB-DL.DD5.1.H264-FGT 3.40GB

[复制链接]
蓝光币
382
发表于 2020-1-20 15:13:36 | 显示全部楼层 |阅读模式
全广场 All.Square.2018.1080p.WEB-DL.DD5.1.H264-FGT 3.40GB-1.png

译  名 全广场
片  名 All Square
年  代 2018
产  地 美国
类  别 剧情
语  言 英语
上映日期 2018-10-12(美国)
IMDb评分  5.8/10 from 302 users
IMDb链接  https://www.imdb.com/title/tt6927880
豆瓣评分 0/10 from 0 users
豆瓣链接 https://movie.douban.com/subject/27075448/
片  长 88分钟
导  演 约翰·海姆斯 John Hyams
编  剧 Timothy Brady
主  演 迈克尔·凯利 Michael Kelly
       小伊塞亚·维特洛克 Isiah Whitlock Jr.
       Craig Walker
       Jesse Ray Sheps
       Jay Larson
       Jason Pendergraft
       Andrew Sikking
       乔什·卢卡斯 Josh Lucas
       帕梅拉·阿德龙 Pamela Adlon


标  签 2018 | 美国 | [歐美] | JoshLucas

简  介  

  A down-on-his-luck bookie befriends an ex-girlfriend's son and begins taking bets on his little league games, creating chaos in the community.
  1. Video
  2. ID                                       : 1
  3. Format                                   : AVC
  4. Format/Info                              : Advanced Video Codec
  5. Format profile                           : [email protected]
  6. Format settings                          : CABAC / 5 Ref Frames
  7. Format settings, CABAC                   : Yes
  8. Format settings, Reference frames        : 5 frames
  9. Codec ID                                 : V_MPEG4/ISO/AVC
  10. Duration                                 : 1 h 39 min
  11. Bit rate                                 : 4 501 kb/s
  12. Width                                    : 1 920 pixels
  13. Height                                   : 804 pixels
  14. Display aspect ratio                     : 2.40:1
  15. Frame rate mode                          : Constant
  16. Frame rate                               : 23.976 FPS
  17. Color space                              : YUV
  18. Chroma subsampling                       : 4:2:0
  19. Bit depth                                : 8 bits
  20. Scan type                                : Progressive
  21. Bits/(Pixel*Frame)                       : 0.122
  22. Stream size                              : 3.13 GiB (92%)
  23. Language                                 : English
  24. Default                                  : Yes
  25. Forced                                   : No
  26. Color range                              : Limited
  27. Color primaries                          : BT.709
  28. Transfer characteristics                 : BT.709
  29. Matrix coefficients                      : BT.709

  30. Audio
  31. ID                                       : 2
  32. Format                                   : AC-3
  33. Format/Info                              : Audio Coding 3
  34. Commercial name                          : Dolby Digital
  35. Codec ID                                 : A_AC3
  36. Duration                                 : 1 h 39 min
  37. Bit rate mode                            : Constant
  38. Bit rate                                 : 384 kb/s
  39. Channel(s)                               : 6 channels
  40. Channel layout                           : L R C LFE Ls Rs
  41. Sampling rate                            : 48.0 kHz
  42. Frame rate                               : 31.250 FPS (1536 SPF)
  43. Bit depth                                : 16 bits
  44. Compression mode                         : Lossy
  45. Stream size                              : 274 MiB (8%)
  46. Language                                 : English
  47. Service kind                             : Complete Main
  48. Default                                  : Yes
  49. Forced                                   : No

  50. Menu
  51. 00:00:00.000                             : en:1
  52. 00:07:12.000                             : en:2
  53. 00:13:53.000                             : en:3
  54. 00:21:25.000                             : en:4
  55. 00:27:43.000                             : en:5
  56. 00:34:07.000                             : en:6
  57. 00:39:53.000                             : en:7
  58. 00:47:54.000                             : en:8
  59. 00:54:22.000                             : en:9
  60. 01:00:48.000                             : en:10
  61. 01:06:51.000                             : en:11
  62. 01:12:38.000                             : en:12
  63. 01:17:24.000                             : en:13
  64. 01:23:55.000                             : en:14
  65. 01:31:08.000                             : en:15
  66. 01:36:24.000                             : en:16
复制代码

全广场 All.Square.2018.1080p.WEB-DL.DD5.1.H264-FGT 3.40GB-2.png 全广场 All.Square.2018.1080p.WEB-DL.DD5.1.H264-FGT 3.40GB-3.png 全广场 All.Square.2018.1080p.WEB-DL.DD5.1.H264-FGT 3.40GB-4.png






回复

使用道具 举报

懒得打字嘛,点击右侧快捷回复 【右侧内容,后台自定义】
您需要登录后才可以回帖 登录 | 立即加入

本版积分规则

Archiver|小黑屋| 蓝光电影网 |网站地图

Copyright © 2021 Comsenz Inc. Powered by 蓝光电影网

蓝光电影网

本站内容由用户自主分享和转载自互联网,转载目的在于传递更多信息,并不代表本网赞同其观点和对其真实性负责。

如有侵权、违反国家法律政策行为,请联系我们,我们会第一时间及时清除和处理!

举报反馈邮箱:[email protected]

快速回复 返回顶部 返回列表