找回密码

蓝光电影网

查看: 83|回复: 0

[剧情] 幸福的理由 A.Reason.2014.1080p.WEB-DL.DD5.1.H264-PfXCPI 3.78GB

[复制链接]
蓝光币
382
发表于 2020-1-20 15:15:21 | 显示全部楼层 |阅读模式
幸运的来由 A.Reason.2014.1080p.WEB-DL.DD5.1.H264-PfXCPI 3.78GB-1.png

译  名 幸运的来由(台)
片  名 A Reason
年  代 2014
产  地 美国
类  别 剧情
语  言 英语
IMDb评分  6.7/10 from 50 users
IMDb链接  https://www.imdb.com/title/tt2421328
豆瓣评分 0/10 from 0 users
豆瓣链接 https://movie.douban.com/subject/24298331/
导  演 Dominique Schilling
编  剧 Dominique Schilling
主  演 Magda Apanowicz
       Nick Eversman
       Marion Ross


简  介  

  暂无相关剧情先容
  1. Video
  2. ID                                       : 1
  3. Format                                   : AVC
  4. Format/Info                              : Advanced Video Codec
  5. Format profile                           : [email protected]
  6. Format settings                          : CABAC / 5 Ref Frames
  7. Format settings, CABAC                   : Yes
  8. Format settings, Reference frames        : 5 frames
  9. Codec ID                                 : V_MPEG4/ISO/AVC
  10. Duration                                 : 1 h 51 min
  11. Bit rate                                 : 4 442 kb/s
  12. Width                                    : 1 908 pixels
  13. Height                                   : 798 pixels
  14. Display aspect ratio                     : 2.40:1
  15. Frame rate mode                          : Constant
  16. Frame rate                               : 23.976 FPS
  17. Color space                              : YUV
  18. Chroma subsampling                       : 4:2:0
  19. Bit depth                                : 8 bits
  20. Scan type                                : Progressive
  21. Bits/(Pixel*Frame)                       : 0.122
  22. Stream size                              : 3.47 GiB (92%)
  23. Language                                 : English
  24. Default                                  : Yes
  25. Forced                                   : No
  26. Color range                              : Limited
  27. Color primaries                          : BT.709
  28. Transfer characteristics                 : BT.709
  29. Matrix coefficients                      : BT.709

  30. Audio
  31. ID                                       : 2
  32. Format                                   : AC-3
  33. Format/Info                              : Audio Coding 3
  34. Commercial name                          : Dolby Digital
  35. Codec ID                                 : A_AC3
  36. Duration                                 : 1 h 51 min
  37. Bit rate mode                            : Constant
  38. Bit rate                                 : 384 kb/s
  39. Channel(s)                               : 6 channels
  40. Channel layout                           : L R C LFE Ls Rs
  41. Sampling rate                            : 48.0 kHz
  42. Frame rate                               : 31.250 FPS (1536 SPF)
  43. Bit depth                                : 16 bits
  44. Compression mode                         : Lossy
  45. Stream size                              : 307 MiB (8%)
  46. Language                                 : English
  47. Service kind                             : Complete Main
  48. Default                                  : Yes
  49. Forced                                   : No

  50. Text
  51. ID                                       : 3
  52. Format                                   : UTF-8
  53. Codec ID                                 : S_TEXT/UTF8
  54. Codec ID/Info                            : UTF-8 Plain Text
  55. Duration                                 : 1 h 47 min
  56. Bit rate                                 : 71 b/s
  57. Count of elements                        : 1380
  58. Stream size                              : 56.2 KiB (0%)
  59. Language                                 : English
  60. Default                                  : Yes
  61. Forced                                   : No
复制代码

幸运的来由 A.Reason.2014.1080p.WEB-DL.DD5.1.H264-PfXCPI 3.78GB-2.png 幸运的来由 A.Reason.2014.1080p.WEB-DL.DD5.1.H264-PfXCPI 3.78GB-3.png 幸运的来由 A.Reason.2014.1080p.WEB-DL.DD5.1.H264-PfXCPI 3.78GB-4.png






回复

使用道具 举报

懒得打字嘛,点击右侧快捷回复 【右侧内容,后台自定义】
您需要登录后才可以回帖 登录 | 立即加入

本版积分规则

Archiver|小黑屋| 蓝光电影网 |网站地图

Copyright © 2021 Comsenz Inc. Powered by 蓝光电影网

蓝光电影网

本站内容由用户自主分享和转载自互联网,转载目的在于传递更多信息,并不代表本网赞同其观点和对其真实性负责。

如有侵权、违反国家法律政策行为,请联系我们,我们会第一时间及时清除和处理!

举报反馈邮箱:[email protected]

快速回复 返回顶部 返回列表